<?xml version="1.0" standalone="no"?>
<!DOCTYPE svg PUBLIC "-//W3C//DTD SVG 1.1//EN" "http://www.w3.org/Graphics/SVG/1.1/DTD/svg11.dtd">
<svg xmlns="http://www.w3.org/2000/svg">
<defs >
<font id="DroidSans" horiz-adv-x="1062" ><font-face
    font-family="Droid Sans"
    units-per-em="2048"
    panose-1="2 11 6 6 3 8 4 2 2 4"
    ascent="1907"
    descent="-492"
    alphabetic="0" />
<glyph unicode=" " glyph-name="space" horiz-adv-x="532" />
<glyph unicode="!" glyph-name="exclam" horiz-adv-x="551" d="M336 414H215L164 1462H387L336 414ZM147 111Q147 149 157 175T184 218T224 242T274 250Q300 250 323 243T364 219T391 176T401 111Q401 74 391 48T364 4T324 -21T274 -29Q247 -29 224 -21T184 4T157
47T147 111Z" />
<glyph unicode="&quot;" glyph-name="quotedbl" horiz-adv-x="823" d="M330 1462L289 934H174L133 1462H330ZM690 1462L649 934H535L494 1462H690Z" />
<glyph unicode="#" glyph-name="numbersign" horiz-adv-x="1323" d="M983 893L920 565H1200V428H893L811 0H664L748 428H457L375 0H231L309 428H51V565H336L401 893H127V1030H426L508 1462H655L573 1030H866L950 1462H1094L1010 1030H1272V893H983ZM483 565H774L838
893H547L483 565Z" />
<glyph unicode="$" glyph-name="dollar" horiz-adv-x="1128" d="M985 446Q985 376 960 319T889 220T776 151T625 111V-119H487V102Q437 102 386 106T287 120T197 142T123 172V344Q156 328 199 312T291 282T389 261T487 252V686Q398 716 333 749T224 824T160 922T139
1051Q139 1118 163 1173T233 1270T343 1338T487 1374V1554H625V1378Q725 1373 809 1352T961 1300L895 1155Q839 1180 769 1200T625 1227V805Q713 774 780 741T893 667T962 572T985 446ZM809 446Q809 479 799 506T768 556T711 598T625 635V262Q718 276 763 325T809
446ZM315 1049Q315 1013 323 985T352 933T405 890T487 854V1223Q398 1207 357 1163T315 1049Z" />
<glyph unicode="%" glyph-name="percent" horiz-adv-x="1690" d="M250 1026Q250 861 285 779T401 696Q557 696 557 1026Q557 1354 401 1354Q321 1354 286 1273T250 1026ZM705 1026Q705 918 687 832T632 687T538 597T401 565Q328 565 272 596T178 687T121 832T102
1026Q102 1134 119 1219T173 1362T266 1452T401 1483Q476 1483 532 1452T627 1363T685 1219T705 1026ZM1133 440Q1133 275 1168 193T1284 111Q1440 111 1440 440Q1440 768 1284 768Q1204 768 1169 687T1133 440ZM1587 440Q1587 332 1570 247T1515 102T1421 12T1284
-20Q1210 -20 1154 11T1061 102T1004 246T985 440Q985 548 1002 633T1056 776T1149 866T1284 897Q1359 897 1415 866T1510 777T1567 633T1587 440ZM1331 1462L520 0H362L1174 1462H1331Z" />
<glyph unicode="&amp;" glyph-name="ampersand" horiz-adv-x="1438" d="M422 1165Q422 1131 430 1099T454 1034T497 968T559 897Q618 932 661 963T732 1026T774 1093T788 1169Q788 1205 776 1235T740 1288T683 1322T608 1335Q522 1335 472 1291T422 1165ZM557
141Q615 141 664 152T755 184T833 231T901 289L514 696Q462 663 422 632T355 564T313 486T299 387Q299 333 316 288T367 210T448 159T557 141ZM109 381Q109 459 129 520T187 631T281 724T408 809Q377 845 347 883T295 965T258 1058T244 1165Q244 1240 269 1299T341
1400T457 1463T614 1485Q697 1485 762 1464T873 1401T943 1300T967 1165Q967 1101 942 1047T875 946T779 860T664 784L1016 412Q1043 441 1064 471T1103 535T1133 608T1157 694H1341Q1326 628 1306 573T1259 468T1200 377T1128 293L1405 0H1180L1012 172Q963 127
915 92T813 32T697 -6T557 -20Q452 -20 369 6T228 84T140 210T109 381Z" />
<glyph unicode="&apos;" glyph-name="quotesingle" horiz-adv-x="463" d="M330 1462L289 934H174L133 1462H330Z" />
<glyph unicode="(" glyph-name="parenleft" horiz-adv-x="616" d="M82 561Q82 686 100 807T155 1043T248 1263T383 1462H555Q415 1269 343 1038T270 563Q270 444 288 326T342 95T431 -124T553 -324H383Q305 -234 249 -131T155 84T100 317T82 561Z" />
<glyph unicode=")" glyph-name="parenright" horiz-adv-x="616" d="M535 561Q535 437 517 317T462 85T368 -131T233 -324H63Q132 -230 185 -124T274 95T328 326T346 563Q346 807 274 1038T61 1462H233Q311 1369 367 1264T461 1044T517 808T535 561Z" />
<glyph unicode="*" glyph-name="asterisk" horiz-adv-x="1128" d="M664 1556L621 1163L1018 1274L1044 1081L666 1053L911 727L733 631L557 989L399 631L215 727L457 1053L82 1081L111 1274L502 1163L459 1556H664Z" />
<glyph unicode="+" glyph-name="plus" horiz-adv-x="1128" d="M489 647H102V797H489V1186H639V797H1026V647H639V262H489V647Z" />
<glyph unicode="," glyph-name="comma" horiz-adv-x="512" d="M362 238L377 215Q363 161 344 100T301 -23T252 -146T201 -264H63Q78 -203 92 -137T120 -6T145 122T164 238H362Z" />
<glyph unicode="-" glyph-name="hyphen" horiz-adv-x="659" d="M82 465V633H578V465H82Z" />
<glyph unicode="." glyph-name="period" horiz-adv-x="549" d="M147 111Q147 149 157 175T184 218T224 242T274 250Q300 250 323 243T364 219T391 176T401 111Q401 74 391 48T364 4T324 -21T274 -29Q247 -29 224 -21T184 4T157 47T147 111Z" />
<glyph unicode="/" glyph-name="slash" horiz-adv-x="764" d="M743 1462L199 0H20L565 1462H743Z" />
<glyph unicode="0" glyph-name="zero" horiz-adv-x="1128" d="M1032 733Q1032 556 1007 416T925 179T779 31T563 -20Q445 -20 358 31T213 179T127 416T98 733Q98 910 123 1050T204 1286T348 1434T563 1485Q682 1485 770 1435T916 1288T1003 1051T1032 733ZM283
733Q283 583 298 471T346 285T432 173T563 135Q640 135 694 172T782 283T832 469T848 733Q848 883 833 995T783 1181T694 1292T563 1329Q486 1329 433 1292T346 1181T298 995T283 733Z" />
<glyph unicode="1" glyph-name="one" horiz-adv-x="1128" d="M711 0H535V913Q535 956 535 1005T537 1102T540 1195T543 1274Q526 1256 513 1243T487 1218T458 1193T422 1161L274 1040L178 1163L561 1462H711V0Z" />
<glyph unicode="2" glyph-name="two" horiz-adv-x="1128" d="M1008 0H96V156L446 537Q521 618 580 685T680 816T744 944T766 1085Q766 1144 749 1189T701 1265T626 1313T530 1329Q435 1329 359 1291T213 1192L111 1311Q151 1347 197 1378T296 1433T408 1469T532
1483Q628 1483 705 1456T837 1379T920 1256T950 1092Q950 1007 924 930T851 779T740 629T600 473L319 174V166H1008V0Z" />
<glyph unicode="3" glyph-name="three" horiz-adv-x="1128" d="M961 1120Q961 1047 938 987T874 883T774 811T645 770V764Q822 742 914 652T1006 416Q1006 320 974 240T875 102T708 12T469 -20Q360 -20 264 -3T82 59V229Q169 183 270 158T465 133Q557 133 624
153T734 210T798 301T819 422Q819 490 793 538T717 618T598 665T438 680H305V831H438Q519 831 582 851T687 908T752 996T774 1108Q774 1160 756 1201T705 1270T626 1314T524 1329Q417 1329 336 1296T180 1208L88 1333Q126 1364 172 1391T274 1438T391 1471T524
1483Q632 1483 713 1456T850 1381T933 1266T961 1120Z" />
<glyph unicode="4" glyph-name="four" horiz-adv-x="1128" d="M1087 328H874V0H698V328H23V487L686 1470H874V494H1087V328ZM698 494V850Q698 906 699 967T703 1087T707 1197T711 1282H702Q695 1262 685 1238T662 1189T636 1141T612 1102L201 494H698Z" />
<glyph unicode="5" glyph-name="five" horiz-adv-x="1128" d="M545 897Q644 897 729 870T878 788T978 654T1014 469Q1014 355 980 264T879 110T714 14T487 -20Q436 -20 387 -15T292 -1T205 24T131 59V231Q164 208 208 190T302 160T400 142T492 135Q571 135 633
153T738 211T804 309T827 449Q827 592 739 667T483 743Q456 743 425 741T362 734T302 726T252 717L162 774L217 1462H907V1296H375L336 877Q368 883 420 890T545 897Z" />
<glyph unicode="6" glyph-name="six" horiz-adv-x="1128" d="M113 625Q113 730 123 834T160 1033T233 1211T350 1353T520 1448T752 1483Q771 1483 794 1482T840 1479T885 1473T924 1464V1309Q889 1321 845 1327T758 1333Q668 1333 600 1312T481 1251T398 1158T343
1039T312 899T299 745H311Q331 781 359 812T426 866T511 902T618 915Q713 915 790 886T921 799T1004 660T1034 471Q1034 357 1003 266T914 112T774 14T590 -20Q490 -20 403 19T251 138T150 339T113 625ZM588 133Q648 133 697 153T783 215T838 320T858 471Q858 541
842 596T792 691T710 751T594 772Q527 772 472 749T377 688T317 602T295 506Q295 439 313 373T368 253T460 167T588 133Z" />
<glyph unicode="7" glyph-name="seven" horiz-adv-x="1128" d="M281 0L844 1296H90V1462H1030V1317L475 0H281Z" />
<glyph unicode="8" glyph-name="eight" horiz-adv-x="1128" d="M565 1485Q649 1485 723 1463T854 1397T944 1287T977 1133Q977 1066 957 1012T902 915T819 837T715 774Q773 743 828 705T927 620T997 513T1024 381Q1024 289 991 215T897 88T752 8T565 -20Q455 -20
370 7T226 84T137 208T106 373Q106 448 128 508T189 616T279 701T389 766Q340 797 297 833T223 915T173 1014T154 1135Q154 1222 187 1287T278 1397T409 1463T565 1485ZM285 371Q285 318 301 274T351 198T437 149T561 131Q631 131 684 148T774 198T828 277T846
379Q846 431 827 473T771 551T683 619T569 682L539 696Q413 636 349 559T285 371ZM563 1333Q457 1333 395 1280T332 1126Q332 1069 349 1028T398 955T472 898T567 848Q615 870 657 896T731 955T781 1030T799 1126Q799 1227 736 1280T563 1333Z" />
<glyph unicode="9" glyph-name="nine" horiz-adv-x="1128" d="M1028 838Q1028 733 1018 629T981 429T908 252T791 109T621 15T389 -20Q370 -20 347 -19T301 -16T256 -10T217 -2V154Q252 141 296 135T383 129Q518 129 605 176T743 303T815 491T842 717H829Q809
681 781 650T715 596T629 560T522 547Q427 547 350 576T219 663T136 802T106 991Q106 1105 137 1196T226 1351T366 1449T551 1483Q652 1483 739 1444T890 1325T991 1124T1028 838ZM553 1329Q493 1329 444 1309T358 1247T303 1142T283 991Q283 921 299 866T349 771T431
711T547 690Q615 690 670 713T764 774T824 860T846 956Q846 1023 828 1089T773 1209T681 1296T553 1329Z" />
<glyph unicode=":" glyph-name="colon" horiz-adv-x="549" d="M147 111Q147 149 157 175T184 218T224 242T274 250Q300 250 323 243T364 219T391 176T401 111Q401 74 391 48T364 4T324 -21T274 -29Q247 -29 224 -21T184 4T157 47T147 111ZM147 987Q147 1026 157
1052T184 1095T224 1119T274 1126Q300 1126 323 1119T364 1096T391 1053T401 987Q401 950 391 924T364 881T324 856T274 848Q247 848 224 856T184 881T157 924T147 987Z" />
<glyph unicode=";" glyph-name="semicolon" horiz-adv-x="549" d="M362 238L377 215Q363 161 344 100T301 -23T252 -146T201 -264H63Q78 -203 92 -137T120 -6T145 122T164 238H362ZM147 987Q147 1026 157 1052T184 1095T224 1119T274 1126Q300 1126 323 1119T364
1096T391 1053T401 987Q401 950 391 924T364 881T324 856T274 848Q247 848 224 856T184 881T157 924T147 987Z" />
<glyph unicode="&lt;" glyph-name="less" horiz-adv-x="1128" d="M1026 238L102 662V764L1026 1245V1085L291 721L1026 399V238Z" />
<glyph unicode="=" glyph-name="equal" horiz-adv-x="1128" d="M102 852V1001H1026V852H102ZM102 442V592H1026V442H102Z" />
<glyph unicode="&gt;" glyph-name="greater" horiz-adv-x="1128" d="M102 399L838 721L102 1085V1245L1026 764V662L102 238V399Z" />
<glyph unicode="?" glyph-name="question" horiz-adv-x="872" d="M281 414V451Q281 508 288 554T315 640T368 718T451 799Q499 840 533 873T588 941T620 1015T631 1108Q631 1156 616 1195T573 1263T502 1307T403 1323Q320 1323 245 1297T100 1237L37 1382Q118
1424 212 1453T403 1483Q496 1483 570 1458T697 1384T777 1267T805 1110Q805 1043 792 991T751 893T684 806T590 717Q538 672 505 639T453 574T427 509T420 432V414H281ZM233 111Q233 149 243 175T270 218T310 242T360 250Q386 250 409 243T450 219T477 176T487
111Q487 74 477 48T450 4T410 -21T360 -29Q333 -29 310 -21T270 4T243 47T233 111Z" />
<glyph unicode="@" glyph-name="at" horiz-adv-x="1774" d="M1665 731Q1665 669 1656 607T1628 488T1581 383T1514 298T1428 242T1321 221Q1276 221 1240 236T1177 276T1135 333T1112 401H1108Q1090 364 1063 331T1001 274T921 235T823 221Q746 221 687 249T586
327T524 449T502 606Q502 707 531 791T616 936T751 1031T928 1065Q973 1065 1018 1061T1104 1050T1179 1035T1237 1018L1214 602Q1213 580 1213 567T1212 545T1212 533T1212 526Q1212 473 1222 439T1250 385T1288 358T1333 350Q1379 350 1414 380T1472 463T1508
585T1520 733Q1520 875 1477 985T1358 1172T1178 1287T950 1327Q781 1327 652 1272T436 1117T303 881T258 582Q258 431 297 314T413 117T603 -4T864 -45Q925 -45 984 -38T1099 -19T1205 8T1298 41V-100Q1212 -138 1104 -160T866 -182Q687 -182 547 -131T309 17T160
255T109 575Q109 763 168 925T336 1207T601 1394T950 1462Q1106 1462 1237 1412T1463 1267T1612 1037T1665 731ZM662 602Q662 469 712 410T848 350Q903 350 942 372T1006 436T1044 535T1061 662L1075 915Q1047 923 1009 929T928 936Q854 936 804 907T722 831T676
724T662 602Z" />
<glyph unicode="A" glyph-name="A" horiz-adv-x="1245" d="M1055 0L895 453H350L188 0H0L537 1468H707L1245 0H1055ZM836 618L688 1042Q682 1060 674 1086T656 1142T638 1204T621 1268Q614 1237 605 1204T587 1141T570 1085T555 1042L410 618H836Z" />
<glyph unicode="B" glyph-name="B" horiz-adv-x="1272" d="M199 1462H598Q726 1462 823 1443T986 1380T1085 1266T1118 1092Q1118 1030 1099 976T1042 881T951 813T827 776V766Q896 754 956 732T1062 670T1133 570T1159 424Q1159 324 1127 246T1033 113T883 29T684
0H199V1462ZM385 842H629Q713 842 770 857T862 901T912 975T928 1079Q928 1199 851 1251T608 1303H385V842ZM385 686V158H651Q739 158 798 178T894 234T947 320T963 432Q963 488 947 535T893 615T793 667T639 686H385Z" />
<glyph unicode="C" glyph-name="C" horiz-adv-x="1235" d="M793 1319Q686 1319 599 1279T451 1162T356 977T322 731Q322 590 351 481T440 296T587 182T793 143Q882 143 962 160T1120 201V39Q1081 24 1042 13T961 -6T870 -16T762 -20Q598 -20 478 34T280 187T163
425T125 733Q125 899 168 1037T296 1274T506 1428T793 1483Q901 1483 999 1461T1176 1397L1098 1241Q1035 1273 961 1296T793 1319Z" />
<glyph unicode="D" glyph-name="D" horiz-adv-x="1401" d="M1276 745Q1276 560 1228 421T1089 188T866 47T565 0H199V1462H606Q759 1462 883 1416T1094 1280T1228 1055T1276 745ZM1079 739Q1079 885 1046 991T950 1167T795 1269T586 1303H385V160H547Q811 160
945 306T1079 739Z" />
<glyph unicode="E" glyph-name="E" horiz-adv-x="1081" d="M958 0H199V1462H958V1298H385V846H920V684H385V164H958V0Z" />
<glyph unicode="F" glyph-name="F" horiz-adv-x="1006" d="M385 0H199V1462H958V1298H385V782H920V618H385V0Z" />
<glyph unicode="G" glyph-name="G" horiz-adv-x="1413" d="M782 772H1266V55Q1211 37 1155 23T1040 0T916 -15T776 -20Q619 -20 498 32T294 182T168 419T125 733Q125 905 172 1044T311 1280T535 1430T840 1483Q951 1483 1053 1461T1243 1397L1171 1235Q1135 1252
1094 1267T1008 1293T918 1312T825 1319Q703 1319 609 1279T452 1162T355 977T322 731Q322 601 349 493T437 307T592 186T821 143Q865 143 901 145T969 152T1027 161T1081 172V608H782V772Z" />
<glyph unicode="H" glyph-name="H" horiz-adv-x="1436" d="M1237 0H1051V682H385V0H199V1462H385V846H1051V1462H1237V0Z" />
<glyph unicode="I" glyph-name="I" horiz-adv-x="694" d="M612 0H82V102L254 143V1319L82 1360V1462H612V1360L440 1319V143L612 102V0Z" />
<glyph unicode="J" glyph-name="J" horiz-adv-x="555" d="M-29 -389Q-80 -389 -118 -383T-184 -365V-205Q-150 -214 -111 -219T-27 -225Q10 -225 47 -216T115 -181T165 -112T184 0V1462H371V20Q371 -85 342 -162T260 -289T134 -364T-29 -389Z" />
<glyph unicode="K" glyph-name="K" horiz-adv-x="1186" d="M1186 0H975L524 698L385 584V0H199V1462H385V731L506 899L958 1462H1167L647 825L1186 0Z" />
<glyph unicode="L" glyph-name="L" horiz-adv-x="1006" d="M199 0V1462H385V166H958V0H199Z" />
<glyph unicode="M" glyph-name="M" horiz-adv-x="1782" d="M803 0L360 1280H352Q358 1206 362 1133Q366 1070 368 1001T371 874V0H199V1462H475L887 270H893L1307 1462H1583V0H1397V887Q1397 939 1399 1006T1404 1134Q1408 1205 1411 1278H1403L956 0H803Z" />
<glyph unicode="N" glyph-name="N" horiz-adv-x="1493" d="M1294 0H1079L360 1210H352Q358 1133 362 1057Q366 992 368 921T371 793V0H199V1462H412L1128 258H1135Q1132 334 1128 408Q1127 440 1126 473T1123 540T1121 605T1120 662V1462H1294V0Z" />
<glyph unicode="O" glyph-name="O" horiz-adv-x="1520" d="M1393 733Q1393 564 1353 425T1232 187T1034 34T760 -20Q597 -20 478 34T280 187T163 425T125 735Q125 905 163 1043T280 1280T479 1431T762 1485Q917 1485 1034 1432T1232 1280T1352 1043T1393 733ZM322
733Q322 596 348 487T427 301T563 184T760 143Q874 143 956 183T1092 300T1171 486T1196 733Q1196 871 1171 980T1093 1164T958 1280T762 1321Q648 1321 565 1281T428 1165T348 980T322 733Z" />
<glyph unicode="P" glyph-name="P" horiz-adv-x="1180" d="M1075 1034Q1075 943 1048 859T957 711T791 608T535 569H385V0H199V1462H561Q695 1462 792 1434T952 1351T1045 1216T1075 1034ZM385 727H514Q607 727 676 743T791 794T860 886T883 1024Q883 1166 801
1234T545 1303H385V727Z" />
<glyph unicode="Q" glyph-name="Q" horiz-adv-x="1518" d="M1393 733Q1393 602 1369 489T1297 286T1178 129T1014 25Q1057 -69 1125 -140T1284 -272L1163 -414Q1060 -341 974 -242T836 -16Q819 -18 799 -19T760 -20Q597 -20 478 34T280 187T163 425T125 735Q125
905 163 1043T280 1280T479 1431T762 1485Q917 1485 1034 1432T1232 1280T1352 1043T1393 733ZM322 733Q322 596 348 487T427 301T563 184T760 143Q874 143 956 183T1092 300T1171 486T1196 733Q1196 871 1171 980T1093 1164T958 1280T762 1321Q648 1321 565 1281T428
1165T348 980T322 733Z" />
<glyph unicode="R" glyph-name="R" horiz-adv-x="1208" d="M385 604V0H199V1462H555Q821 1462 948 1359T1075 1047Q1075 960 1051 895T986 784T893 706T786 655L1184 0H965L614 604H385ZM385 762H549Q639 762 702 779T805 831T864 917T883 1038Q883 1110 863 1160T801
1242T696 1288T545 1303H385V762Z" />
<glyph unicode="S" glyph-name="S" horiz-adv-x="1063" d="M969 391Q969 294 935 218T836 88T680 8T473 -20Q362 -20 266 -3T104 49V227Q138 211 181 196T273 168T372 149T473 141Q633 141 709 201T786 373Q786 427 772 467T721 540T623 605T469 674Q380 709 315
750T207 844T144 962T123 1112Q123 1200 155 1269T245 1385T383 1458T561 1483Q680 1483 775 1461T944 1403L877 1247Q812 1276 730 1297T559 1319Q437 1319 370 1263T303 1110Q303 1053 318 1012T368 937T460 874T602 811Q693 775 761 737T876 651T945 540T969
391Z" />
<glyph unicode="T" glyph-name="T" horiz-adv-x="1063" d="M625 0H438V1298H20V1462H1042V1298H625V0Z" />
<glyph unicode="U" glyph-name="U" horiz-adv-x="1430" d="M1245 1464V516Q1245 402 1212 304T1113 134T946 21T709 -20Q581 -20 483 18T319 128T218 298T184 520V1462H371V510Q371 335 457 239T719 143Q808 143 872 170T977 246T1038 363T1059 512V1464H1245Z" />
<glyph unicode="V" glyph-name="V" horiz-adv-x="1163" d="M965 1462H1163L674 0H487L0 1462H197L492 535Q521 444 542 360T580 201Q595 275 618 359T672 541L965 1462Z" />
<glyph unicode="W" glyph-name="W" horiz-adv-x="1810" d="M809 1462H1006L1235 606Q1250 550 1264 494T1291 386T1313 286T1329 201Q1333 239 1339 284T1353 378T1370 479T1391 580L1591 1462H1790L1423 0H1235L981 938Q967 989 954 1043T930 1144Q918 1199 907
1251Q896 1200 885 1145Q875 1098 863 1042T836 932L594 0H406L20 1462H217L440 573Q452 527 462 478T480 379T496 285T508 201Q513 238 520 287T538 390T559 499T584 604L809 1462Z" />
<glyph unicode="X" glyph-name="X" horiz-adv-x="1120" d="M1120 0H909L555 635L188 0H0L453 764L31 1462H229L561 903L895 1462H1085L664 770L1120 0Z" />
<glyph unicode="Y" glyph-name="Y" horiz-adv-x="1079" d="M539 723L879 1462H1079L633 569V0H446V559L0 1462H203L539 723Z" />
<glyph unicode="Z" glyph-name="Z" horiz-adv-x="1104" d="M1022 0H82V145L793 1296H102V1462H1001V1317L291 166H1022V0Z" />
<glyph unicode="[" glyph-name="bracketleft" horiz-adv-x="621" d="M569 -324H164V1462H569V1313H346V-174H569V-324Z" />
<glyph unicode="\" glyph-name="backslash" horiz-adv-x="764" d="M201 1462L745 0H567L23 1462H201Z" />
<glyph unicode="]" glyph-name="bracketright" horiz-adv-x="621" d="M51 -174H274V1313H51V1462H457V-324H51V-174Z" />
<glyph unicode="^" glyph-name="asciicircum" horiz-adv-x="1090" d="M41 549L500 1473H602L1049 549H888L551 1284L202 549H41Z" />
<glyph unicode="_" glyph-name="underscore" horiz-adv-x="842" d="M846 -324H-4V-184H846V-324Z" />
<glyph unicode="`" glyph-name="grave" horiz-adv-x="1182" d="M786 1241H666Q631 1269 590 1310T511 1396T441 1480T393 1548V1569H612Q628 1535 649 1495T694 1414T741 1335T786 1268V1241Z" />
<glyph unicode="a" glyph-name="a" horiz-adv-x="1087" d="M793 0L756 152H748Q715 107 682 75T610 21T523 -10T412 -20Q343 -20 285 -1T185 59T118 161T94 307Q94 471 209 559T561 655L745 662V731Q745 798 731 843T689 915T621 955T528 967Q445 967 374 943T236
885L172 1022Q246 1062 337 1090T528 1118Q630 1118 704 1098T827 1033T900 919T924 752V0H793ZM459 127Q520 127 572 146T662 203T721 300T743 438V537L600 530Q510 526 449 510T352 466T299 397T283 305Q283 213 331 170T459 127Z" />
<glyph unicode="b" glyph-name="b" horiz-adv-x="1200" d="M670 1118Q764 1118 841 1082T972 975T1057 797T1087 551Q1087 410 1057 304T973 125T841 17T670 -20Q611 -20 563 -7T477 27T409 78T356 139H344L307 0H174V1556H356V1180Q356 1145 355 1106T352 1032Q350
992 348 954H356Q379 989 408 1019T475 1071T562 1105T670 1118ZM635 967Q555 967 502 942T416 864T370 734T356 551Q356 450 369 372T415 240T502 159T637 131Q772 131 835 240T899 553Q899 761 836 864T635 967Z" />
<glyph unicode="c" glyph-name="c" horiz-adv-x="948" d="M594 -20Q493 -20 405 11T252 111T150 286T113 543Q113 700 151 809T255 987T411 1087T602 1118Q680 1118 754 1101T879 1059L825 905Q802 915 774 924T716 941T657 953T602 958Q445 958 373 858T301 545Q301
334 373 237T594 139Q675 139 740 157T860 201V39Q806 10 745 -5T594 -20Z" />
<glyph unicode="d" glyph-name="d" horiz-adv-x="1200" d="M852 147H844Q822 113 793 83T725 29T638 -7T530 -20Q437 -20 360 16T228 123T143 301T113 547Q113 688 143 794T228 973T360 1081T530 1118Q589 1118 637 1105T723 1070T792 1019T844 958H856Q853 992
850 1023Q848 1049 846 1076T844 1120V1556H1026V0H879L852 147ZM565 131Q641 131 693 154T778 224T826 341T844 506V547Q844 648 831 726T785 858T698 939T563 967Q428 967 365 858T301 545Q301 336 364 234T565 131Z" />
<glyph unicode="e" glyph-name="e" horiz-adv-x="1096" d="M608 -20Q498 -20 407 17T251 125T149 301T113 541Q113 677 146 784T239 965T382 1079T567 1118Q666 1118 745 1083T879 983T963 828T993 627V514H301Q306 321 382 230T610 139Q661 139 704 144T788 158T867
182T944 215V53Q904 34 866 20T787 -3T703 -16T608 -20ZM563 967Q449 967 383 889T305 662H797Q797 730 784 786T742 883T669 945T563 967Z" />
<glyph unicode="f" glyph-name="f" horiz-adv-x="674" d="M651 961H406V0H223V961H29V1036L223 1104V1200Q223 1307 245 1377T310 1490T415 1549T555 1567Q614 1567 663 1556T752 1530L705 1389Q674 1400 638 1408T561 1417Q521 1417 492 1408T444 1374T416 1309T406
1202V1098H651V961Z" />
<glyph unicode="g" glyph-name="g" horiz-adv-x="1061" d="M1020 1098V985L823 958Q851 923 870 869T889 745Q889 669 866 605T795 493T677 420T514 393Q492 393 470 393T434 397Q417 387 401 375T371 346T349 310T340 266Q340 239 352 223T384 197T433 185T492
182H668Q761 182 825 159T929 95T988 1T1006 -115Q1006 -203 974 -273T874 -391T705 -466T463 -492Q356 -492 276 -471T143 -410T64 -314T37 -186Q37 -126 56 -81T109 -2T185 52T276 84Q234 103 207 144T180 238Q180 299 212 343T313 430Q270 448 235 479T175 551T137
640T123 739Q123 828 148 898T222 1017T344 1092T514 1118Q551 1118 590 1113T657 1098H1020ZM209 -180Q209 -217 222 -249T264 -304T342 -340T463 -354Q649 -354 741 -297T834 -131Q834 -85 822 -56T783 -11T710 12T600 18H424Q389 18 351 10T282 -20T230 -80T209
-180ZM301 745Q301 630 355 574T508 518Q608 518 659 573T711 748Q711 871 659 929T506 987Q407 987 354 927T301 745Z" />
<glyph unicode="h" glyph-name="h" horiz-adv-x="1206" d="M860 0V707Q860 837 808 902T643 967Q562 967 507 941T419 864T371 739T356 569V0H174V1556H356V1094L348 950H358Q383 993 417 1024T493 1077T580 1108T674 1118Q857 1118 949 1023T1042 717V0H860Z" />
<glyph unicode="i" glyph-name="i" horiz-adv-x="530" d="M356 0H174V1098H356V0ZM160 1395Q160 1455 190 1482T266 1509Q288 1509 307 1503T341 1482T364 1447T373 1395Q373 1337 342 1309T266 1280Q221 1280 191 1308T160 1395Z" />
<glyph unicode="j" glyph-name="j" horiz-adv-x="530" d="M66 -492Q18 -492 -13 -485T-68 -467V-319Q-42 -329 -15 -334T47 -340Q74 -340 97 -333T137 -306T164 -254T174 -170V1098H356V-158Q356 -235 339 -296T286 -401T196 -468T66 -492ZM160 1395Q160 1455
190 1482T266 1509Q288 1509 307 1503T341 1482T364 1447T373 1395Q373 1337 342 1309T266 1280Q221 1280 191 1308T160 1395Z" />
<glyph unicode="k" glyph-name="k" horiz-adv-x="1016" d="M342 567L477 737L770 1098H981L580 623L1008 0H799L463 504L354 422V0H174V1556H354V842L338 567H342Z" />
<glyph unicode="l" glyph-name="l" horiz-adv-x="530" d="M356 0H174V1556H356V0Z" />
<glyph unicode="m" glyph-name="m" horiz-adv-x="1835" d="M1489 0V707Q1489 837 1439 902T1284 967Q1211 967 1160 944T1077 875T1029 762T1014 606V0H831V707Q831 837 782 902T627 967Q550 967 498 941T415 864T370 739T356 569V0H174V1098H322L348 950H358Q382
993 415 1024T487 1077T571 1108T662 1118Q782 1118 861 1074T979 936H987Q1013 983 1049 1017T1129 1073T1221 1107T1319 1118Q1494 1118 1582 1023T1671 717V0H1489Z" />
<glyph unicode="n" glyph-name="n" horiz-adv-x="1206" d="M860 0V707Q860 837 808 902T643 967Q562 967 507 941T419 864T371 739T356 569V0H174V1098H322L348 950H358Q383 993 417 1024T493 1077T580 1108T674 1118Q857 1118 949 1023T1042 717V0H860Z" />
<glyph unicode="o" glyph-name="o" horiz-adv-x="1182" d="M1069 551Q1069 414 1036 308T940 129T788 18T588 -20Q485 -20 398 18T248 128T149 307T113 551Q113 687 146 792T242 970T393 1080T594 1118Q697 1118 784 1081T934 971T1033 793T1069 551ZM301 551Q301
342 369 237T592 131Q746 131 813 236T881 551Q881 760 813 863T590 967Q436 967 369 864T301 551Z" />
<glyph unicode="p" glyph-name="p" horiz-adv-x="1200" d="M670 -20Q611 -20 563 -7T477 27T409 78T356 139H344Q347 105 350 74Q352 48 354 21T356 -23V-492H174V1098H322L348 950H356Q379 985 408 1015T475 1068T562 1104T670 1118Q764 1118 841 1082T972 975T1057
797T1087 551Q1087 410 1057 304T973 125T841 17T670 -20ZM635 967Q559 967 507 944T422 874T374 757T356 592V551Q356 450 369 372T415 240T502 159T637 131Q772 131 835 240T899 553Q899 761 836 864T635 967Z" />
<glyph unicode="q" glyph-name="q" horiz-adv-x="1200" d="M565 131Q641 131 693 154T778 224T826 341T844 506V547Q844 648 831 726T785 858T698 939T563 967Q428 967 365 858T301 545Q301 336 364 234T565 131ZM530 -20Q437 -20 360 16T228 123T143 301T113
547Q113 688 143 794T228 973T360 1081T530 1118Q589 1118 637 1105T723 1069T791 1016T844 950H852L879 1098H1026V-492H844V-23Q844 -4 846 25T850 81Q853 113 856 147H844Q822 113 793 83T725 29T638 -7T530 -20Z" />
<glyph unicode="r" glyph-name="r" horiz-adv-x="817" d="M649 1118Q678 1118 714 1116T776 1108L752 940Q724 945 695 948T639 952Q576 952 524 927T435 854T377 740T356 592V0H174V1098H322L344 897H352Q377 940 405 980T469 1050T549 1099T649 1118Z" />
<glyph unicode="s" glyph-name="s" horiz-adv-x="924" d="M831 301Q831 221 802 161T719 61T587 0T414 -20Q305 -20 227 -3T90 49V215Q121 199 159 184T239 156T325 137T414 129Q479 129 524 140T598 171T640 221T653 287Q653 318 643 343T607 392T534 442T416
498Q344 529 287 559T189 626T128 711T106 827Q106 897 133 951T211 1043T331 1099T487 1118Q584 1118 664 1097T817 1042L754 895Q689 924 621 945T481 967Q379 967 330 934T281 838Q281 803 292 777T332 728T407 682T524 629Q596 599 652 569T749 502T810 416T831
301Z" />
<glyph unicode="t" glyph-name="t" horiz-adv-x="694" d="M506 129Q524 129 546 131T590 136T628 143T655 150V12Q642 6 622 0T578 -10T528 -17T477 -20Q415 -20 362 -4T271 51T210 156T188 324V961H33V1042L188 1120L266 1350H371V1098H647V961H371V324Q371 227
402 178T506 129Z" />
<glyph unicode="u" glyph-name="u" horiz-adv-x="1206" d="M885 0L858 147H848Q823 104 789 73T713 21T626 -10T532 -20Q441 -20 372 3T257 75T188 200T164 381V1098H346V391Q346 261 399 196T563 131Q644 131 699 157T787 233T835 358T850 528V1098H1032V0H885Z" />
<glyph unicode="v" glyph-name="v" horiz-adv-x="981" d="M375 0L0 1098H188L387 487Q398 454 413 402T443 296T470 194T487 121H494Q499 146 511 194T538 296T568 402T594 487L793 1098H981L606 0H375Z" />
<glyph unicode="w" glyph-name="w" horiz-adv-x="1528" d="M1008 0L840 616Q836 634 830 656T818 704T806 755T793 806Q779 864 764 926H758Q744 863 731 805Q720 755 708 702T684 612L512 0H301L20 1098H211L342 514Q352 469 362 417T381 313T397 216T408 141H414Q419
167 427 210T446 302T468 398T489 479L668 1098H864L1036 479Q1045 445 1056 399T1079 306T1099 214T1112 141H1118Q1121 167 1127 210T1143 306T1162 412T1184 514L1321 1098H1507L1223 0H1008Z" />
<glyph unicode="x" glyph-name="x" horiz-adv-x="1024" d="M408 563L55 1098H262L512 688L762 1098H969L614 563L987 0H780L512 436L242 0H35L408 563Z" />
<glyph unicode="y" glyph-name="y" horiz-adv-x="1001" d="M10 1098H199L414 485Q428 445 442 401T469 313T491 228T504 152H510Q515 177 526 220T550 311T578 407T604 487L803 1098H991L557 -143Q529 -224 497 -288T421 -398T320 -467T182 -492Q130 -492 92 -487T27
-475V-330Q48 -335 80 -338T147 -342Q195 -342 230 -331T291 -297T335 -243T369 -170L426 -10L10 1098Z" />
<glyph unicode="z" glyph-name="z" horiz-adv-x="903" d="M821 0H82V125L618 961H115V1098H803V952L279 137H821V0Z" />
<glyph unicode="{" glyph-name="braceleft" horiz-adv-x="725" d="M500 -16Q500 -64 512 -94T546 -142T601 -166T674 -174V-324Q597 -323 532 -307T419 -255T344 -164T317 -31V303Q317 406 252 449T61 492V647Q186 647 251 690T317 836V1169Q317 1247 344 1302T418
1392T531 1444T674 1462V1313Q634 1312 602 1306T547 1282T512 1234T500 1155V823Q500 718 441 657T266 575V563Q381 543 440 482T500 315V-16Z" />
<glyph unicode="|" glyph-name="bar" horiz-adv-x="1128" d="M489 1556H639V-492H489V1556Z" />
<glyph unicode="}" glyph-name="braceright" horiz-adv-x="725" d="M225 315Q225 421 284 482T459 563V575Q344 595 285 656T225 823V1155Q225 1203 213 1233T179 1281T124 1305T51 1313V1462Q128 1461 193 1445T306 1393T381 1302T408 1169V836Q408 784 424 748T473
690T554 657T664 647V492Q539 492 474 449T408 303V-31Q408 -109 381 -164T307 -254T194 -306T51 -324V-174Q91 -173 123 -167T178 -143T213 -95T225 -16V315Z" />
<glyph unicode="~" glyph-name="asciitilde" horiz-adv-x="1128" d="M530 651Q493 667 466 678T416 695T373 704T330 707Q302 707 272 698T213 672T155 633T102 586V748Q202 856 350 856Q379 856 404 854T456 845T517 826T598 793Q635 777 662 766T713 749T757
740T799 737Q827 737 857 746T916 772T974 811T1026 858V696Q927 588 778 588Q749 588 724 590T672 599T611 618T530 651Z" />
<glyph unicode="&#xa0;" glyph-name="nbspace" horiz-adv-x="532" />
<glyph unicode="&#xa1;" glyph-name="exclamdown" horiz-adv-x="551" d="M213 676H334L385 -373H162L213 676ZM401 979Q401 941 392 915T365 872T324 848T274 840Q248 840 225 847T185 871T157 914T147 979Q147 1016 157 1042T184 1085T225 1110T274 1118Q301
1118 324 1110T364 1085T391 1042T401 979Z" />
<glyph unicode="&#xa2;" glyph-name="cent" horiz-adv-x="1128" d="M886 212T831 197T700 180V-20H563V186Q476 199 407 236T289 340T214 506T188 743Q188 884 214 985T289 1155T407 1260T563 1311V1483H700V1319Q772 1316 840 1300T954 1260L901 1106Q878 1116
850 1125T792 1142T733 1154T678 1159Q521 1159 449 1058T377 745Q377 535 449 438T670 340Q751 340 816 358T936 401V240Q886 212 831 197Z" />
<glyph unicode="&#xa3;" glyph-name="sterling" horiz-adv-x="1128" d="M666 1481Q772 1481 859 1459T1012 1401L946 1257Q890 1286 820 1307T674 1329Q626 1329 585 1316T514 1273T468 1196T451 1083V788H827V651H451V440Q451 378 440 334T409 257T364 204T311
166H1059V0H68V154Q112 165 148 185T211 240T253 322T268 438V651H70V788H268V1112Q268 1199 297 1267T379 1383T505 1456T666 1481Z" />
<glyph unicode="&#xa4;" glyph-name="currency" horiz-adv-x="1128" d="M186 723Q186 782 203 835T252 936L123 1065L221 1163L348 1034Q395 1066 449 1084T563 1102Q623 1102 676 1084T776 1034L905 1163L1004 1067L874 938Q905 892 923 838T942 723Q942 663
925 608T874 508L1001 381L905 285L776 412Q730 381 677 364T563 346Q503 346 448 364T348 414L221 287L125 383L252 510Q221 555 204 609T186 723ZM324 723Q324 673 342 630T393 554T469 502T563 483Q614 483 658 502T736 553T788 629T807 723Q807 774 788 818T736
896T659 948T563 967Q513 967 470 948T394 896T343 819T324 723Z" />
<glyph unicode="&#xa5;" glyph-name="yen" horiz-adv-x="1128" d="M563 723L909 1462H1100L715 694H954V557H653V399H954V262H653V0H475V262H174V399H475V557H174V694H408L29 1462H221L563 723Z" />
<glyph unicode="&#xa6;" glyph-name="brokenbar" horiz-adv-x="1128" d="M489 1556H639V776H489V1556ZM489 289H639V-492H489V289Z" />
<glyph unicode="&#xa7;" glyph-name="section" horiz-adv-x="995" d="M137 809Q137 860 150 901T185 975T237 1029T297 1067Q222 1105 180 1162T137 1303Q137 1364 164 1413T242 1496T362 1548T518 1567Q615 1567 693 1547T844 1495L788 1356Q723 1384 653 1403T512
1423Q413 1423 362 1394T311 1307Q311 1280 323 1257T363 1212T439 1167T557 1114Q629 1086 685 1054T781 982T841 895T862 784Q862 732 850 690T818 613T771 555T717 514Q786 476 824 422T862 289Q862 218 833 163T749 69T618 10T444 -10Q336 -10 258 6T121 55V213Q152
198 190 183T270 157T356 138T444 131Q513 131 559 143T633 174T672 219T684 272Q684 301 676 323T642 368T569 415T446 471Q373 502 316 533T218 603T158 692T137 809ZM291 831Q291 794 305 763T350 702T432 646T555 588L590 573Q610 586 630 604T667 645T694
696T705 758Q705 796 692 828T647 889T560 947T424 1006Q399 998 376 983T333 945T303 893T291 831Z" />
<glyph unicode="&#xa8;" glyph-name="dieresis" horiz-adv-x="1182" d="M307 1395Q307 1449 335 1473T403 1497Q442 1497 471 1473T500 1395Q500 1342 471 1317T403 1292Q363 1292 335 1317T307 1395ZM682 1395Q682 1449 710 1473T778 1497Q797 1497 814 1491T845
1473T866 1441T874 1395Q874 1342 845 1317T778 1292Q738 1292 710 1317T682 1395Z" />
<glyph unicode="&#xa9;" glyph-name="copyright" horiz-adv-x="1704" d="M891 1053Q830 1053 783 1031T704 968T656 866T639 731Q639 653 653 593T698 492T776 430T891 408Q914 408 941 411T996 421T1053 435T1106 453V322Q1082 311 1058 302T1007 286T950 276T885
272Q783 272 707 305T581 399T505 545T479 733Q479 834 506 917T585 1061T714 1154T891 1188Q954 1188 1020 1172T1145 1126L1083 999Q1031 1025 983 1039T891 1053ZM100 731Q100 835 127 931T202 1110T320 1263T472 1380T652 1456T852 1483Q956 1483 1052 1456T1231
1381T1384 1263T1501 1111T1577 931T1604 731Q1604 627 1577 531T1502 352T1384 200T1232 82T1052 7T852 -20Q748 -20 652 6T473 82T320 199T203 351T127 531T100 731ZM209 731Q209 598 259 481T397 277T602 139T852 88Q985 88 1102 138T1306 276T1444 481T1495
731Q1495 864 1445 981T1307 1185T1102 1323T852 1374Q719 1374 602 1324T398 1186T260 981T209 731Z" />
<glyph unicode="&#xaa;" glyph-name="ordfeminine" horiz-adv-x="678" d="M487 797L459 879Q441 857 422 840T379 810T327 791T264 784Q221 784 185 797T123 835T83 899T68 989Q68 1091 138 1145T352 1204L451 1208V1239Q451 1311 421 1339T334 1368Q286 1368
241 1354T154 1317L106 1417Q157 1443 215 1461T334 1479Q459 1479 518 1426T578 1251V797H487ZM377 1110Q326 1107 292 1098T238 1074T208 1038T199 987Q199 936 224 914T291 891Q325 891 354 901T404 934T438 988T451 1065V1114L377 1110Z" />
<glyph unicode="&#xab;" glyph-name="guillemotleft" horiz-adv-x="997" d="M82 553L391 967L508 889L270 541L508 193L391 115L82 526V553ZM489 553L799 967L915 889L678 541L915 193L799 115L489 526V553Z" />
<glyph unicode="&#xac;" glyph-name="logicalnot" horiz-adv-x="1128" d="M1026 797V262H877V647H102V797H1026Z" />
<glyph unicode="&#xad;" glyph-name="uni00AD" horiz-adv-x="659" d="M82 465V633H578V465H82Z" />
<glyph unicode="&#xae;" glyph-name="registered" horiz-adv-x="1704" d="M743 768H815Q906 768 945 804T985 909Q985 983 944 1012T813 1042H743V768ZM1145 913Q1145 865 1132 828T1096 762T1045 713T985 680Q1052 570 1105 483Q1128 446 1149 411T1186 347T1213
302L1223 285H1044L838 637H743V285H586V1178H819Q987 1178 1066 1113T1145 913ZM100 731Q100 835 127 931T202 1110T320 1263T472 1380T652 1456T852 1483Q956 1483 1052 1456T1231 1381T1384 1263T1501 1111T1577 931T1604 731Q1604 627 1577 531T1502 352T1384
200T1232 82T1052 7T852 -20Q748 -20 652 6T473 82T320 199T203 351T127 531T100 731ZM209 731Q209 598 259 481T397 277T602 139T852 88Q985 88 1102 138T1306 276T1444 481T1495 731Q1495 864 1445 981T1307 1185T1102 1323T852 1374Q719 1374 602 1324T398 1186T260
981T209 731Z" />
<glyph unicode="&#xaf;" glyph-name="overscore" horiz-adv-x="1024" d="M1030 1556H-6V1696H1030V1556Z" />
<glyph unicode="&#xb0;" glyph-name="degree" horiz-adv-x="877" d="M123 1167Q123 1232 148 1289T215 1390T315 1458T438 1483Q503 1483 560 1458T661 1390T729 1290T754 1167Q754 1102 729 1045T661 946T561 879T438 854Q373 854 316 878T216 945T148 1045T123
1167ZM246 1167Q246 1128 261 1094T302 1033T363 992T438 977Q478 977 513 992T574 1033T616 1093T631 1167Q631 1207 616 1242T575 1304T513 1346T438 1362Q398 1362 363 1347T302 1305T261 1243T246 1167Z" />
<glyph unicode="&#xb1;" glyph-name="plusminus" horiz-adv-x="1128" d="M489 647H102V797H489V1186H639V797H1026V647H639V262H489V647ZM102 0V150H1026V0H102Z" />
<glyph unicode="&#xb2;" glyph-name="twosuperior" horiz-adv-x="678" d="M621 586H49V698L258 926Q315 988 351 1030T407 1106T434 1169T442 1233Q442 1298 409 1330T322 1362Q271 1362 225 1337T133 1274L55 1368Q109 1416 175 1448T324 1481Q384 1481 432 1465T515
1417T567 1340T586 1237Q586 1187 572 1144T530 1059T464 971T373 870L225 713H621V586Z" />
<glyph unicode="&#xb3;" glyph-name="threesuperior" horiz-adv-x="678" d="M590 1255Q590 1177 550 1124T440 1047Q528 1024 572 971T616 840Q616 780 596 730T535 645T430 589T281 569Q211 569 150 581T31 625V758Q94 724 160 705T279 686Q377 686 421 727T465
842Q465 916 412 949T262 983H164V1096H262Q354 1096 396 1135T438 1239Q438 1271 428 1294T401 1333T360 1355T309 1362Q250 1362 202 1342T102 1284L33 1380Q62 1403 92 1421T157 1453T229 1473T311 1481Q380 1481 432 1464T520 1417T572 1346T590 1255Z" />
<glyph unicode="&#xb4;" glyph-name="acute" horiz-adv-x="1182" d="M393 1268Q415 1297 438 1335T485 1413T530 1494T567 1569H786V1548Q770 1521 739 1481T669 1396T590 1311T514 1241H393V1268Z" />
<glyph unicode="&#xb5;" glyph-name="mu" horiz-adv-x="1217" d="M356 391Q356 261 409 196T573 131Q655 131 710 157T798 233T846 358T860 528V1098H1042V0H895L868 147H858Q810 64 738 22T563 -20Q491 -20 438 3T350 68Q351 30 353 -10Q355 -45 355 -87T356
-172V-492H174V1098H356V391Z" />
<glyph unicode="&#xb6;" glyph-name="paragraph" horiz-adv-x="1341" d="M1126 -260H1006V1397H799V-260H678V559Q617 541 532 541Q437 541 360 566T228 651T143 806T113 1042Q113 1189 145 1287T237 1446T380 1531T563 1556H1126V-260Z" />
<glyph unicode="&#xb7;" glyph-name="middot" horiz-adv-x="549" d="M147 723Q147 761 157 787T184 830T224 854T274 862Q300 862 323 855T364 831T391 788T401 723Q401 686 391 660T364 617T324 592T274 584Q247 584 224 592T184 617T157 660T147 723Z" />
<glyph unicode="&#xb8;" glyph-name="cedilla" horiz-adv-x="420" d="M408 -287Q408 -384 338 -438T117 -492Q95 -492 73 -489T35 -483V-375Q50 -378 74 -379T115 -381Q186 -381 226 -360T266 -289Q266 -265 253 -248T217 -217T163 -195T94 -176L184 0H305L248
-115Q282 -123 311 -136T361 -169T395 -219T408 -287Z" />
<glyph unicode="&#xb9;" glyph-name="onesuperior" horiz-adv-x="678" d="M307 1462H442V586H297V1102Q297 1127 297 1157T299 1217T302 1275T305 1325Q291 1308 272 1288T231 1251L137 1178L63 1274L307 1462Z" />
<glyph unicode="&#xba;" glyph-name="ordmasculine" horiz-adv-x="717" d="M651 1133Q651 1050 631 985T572 876T479 808T356 784Q293 784 240 807T148 875T88 985T66 1133Q66 1216 86 1280T145 1389T237 1456T360 1479Q422 1479 475 1456T568 1389T629 1281T651
1133ZM197 1133Q197 1014 234 954T358 893Q443 893 480 953T518 1133Q518 1253 481 1310T358 1368Q272 1368 235 1311T197 1133Z" />
<glyph unicode="&#xbb;" glyph-name="guillemotright" horiz-adv-x="997" d="M918 526L608 115L492 193L729 541L492 889L608 967L918 553V526ZM510 526L201 115L84 193L322 541L84 889L201 967L510 553V526Z" />
<glyph unicode="&#xbc;" glyph-name="onequarter" horiz-adv-x="1509" d="M307 1462H442V586H297V1102Q297 1127 297 1157T299 1217T302 1275T305 1325Q291 1308 272 1288T231 1251L137 1178L63 1274L307 1462ZM1202 1462L391 0H234L1045 1462H1202ZM1419 193H1294V1H1151V193H776V304L1153
883H1294V320H1419V193ZM1151 320V515Q1151 557 1152 606T1157 705Q1152 694 1142 676T1121 636T1098 595T1077 560L922 320H1151Z" />
<glyph unicode="&#xbd;" glyph-name="onehalf" horiz-adv-x="1509" d="M544 1462H679V586H534V1102Q534 1127 534 1157T536 1217T539 1275T542 1325Q528 1308 509 1288T468 1251L374 1178L300 1274L544 1462ZM1181 1462L370 0H213L1024 1462H1181ZM1440 1H868V113L1077
341Q1134 403 1170 445T1226 521T1253 584T1261 648Q1261 713 1228 745T1141 777Q1090 777 1044 752T952 689L874 783Q928 831 994 863T1143 896Q1203 896 1251 880T1334 832T1386 755T1405 652Q1405 602 1391 559T1349 474T1283 386T1192 285L1044 128H1440V1Z"
/>
<glyph unicode="&#xbe;" glyph-name="threequarters" horiz-adv-x="1509" d="M590 1255Q590 1177 550 1124T440 1047Q528 1024 572 971T616 840Q616 780 596 730T535 645T430 589T281 569Q211 569 150 581T31 625V758Q94 724 160 705T279 686Q377 686 421 727T465
842Q465 916 412 949T262 983H164V1096H262Q354 1096 396 1135T438 1239Q438 1271 428 1294T401 1333T360 1355T309 1362Q250 1362 202 1342T102 1284L33 1380Q62 1403 92 1421T157 1453T229 1473T311 1481Q380 1481 432 1464T520 1417T572 1346T590 1255ZM1296
1462L485 0H328L1139 1462H1296ZM1486 193H1361V1H1218V193H843V304L1220 883H1361V320H1486V193ZM1218 320V515Q1218 557 1219 606T1224 705Q1219 694 1209 676T1188 636T1165 595T1144 560L989 320H1218Z" />
<glyph unicode="&#xbf;" glyph-name="questiondown" horiz-adv-x="872" d="M592 676V639Q592 581 584 536T557 450T505 371T422 291Q374 250 340 217T285 149T253 75T242 -18Q242 -66 257 -105T300 -173T371 -217T469 -233Q553 -233 628 -208T772 -147L836 -293Q754
-335 660 -364T469 -393Q376 -393 302 -368T176 -294T96 -177T68 -20Q68 48 81 100T121 197T188 284T283 373Q335 418 368 451T420 516T446 580T453 657V676H592ZM639 979Q639 941 630 915T603 872T562 848T512 840Q486 840 463 847T423 871T395 914T385 979Q385
1016 395 1042T422 1085T463 1110T512 1118Q539 1118 562 1110T602 1085T629 1042T639 979Z" />
<glyph unicode="&#xc0;" glyph-name="Agrave" horiz-adv-x="1245" d="M1055 0L895 453H350L188 0H0L537 1468H707L1245 0H1055ZM836 618L688 1042Q682 1060 674 1086T656 1142T638 1204T621 1268Q614 1237 605 1204T587 1141T570 1085T555 1042L410 618H836ZM719
1579H599Q564 1607 523 1648T444 1734T374 1818T326 1886V1907H545Q561 1873 582 1833T627 1752T674 1673T719 1606V1579Z" />
<glyph unicode="&#xc1;" glyph-name="Aacute" horiz-adv-x="1245" d="M1055 0L895 453H350L188 0H0L537 1468H707L1245 0H1055ZM836 618L688 1042Q682 1060 674 1086T656 1142T638 1204T621 1268Q614 1237 605 1204T587 1141T570 1085T555 1042L410 618H836ZM534
1606Q556 1635 579 1673T626 1751T671 1832T708 1907H927V1886Q911 1859 880 1819T810 1734T731 1649T655 1579H534V1606Z" />
<glyph unicode="&#xc2;" glyph-name="Acircumflex" horiz-adv-x="1245" d="M1055 0L895 453H350L188 0H0L537 1468H707L1245 0H1055ZM836 618L688 1042Q682 1060 674 1086T656 1142T638 1204T621 1268Q614 1237 605 1204T587 1141T570 1085T555 1042L410 618H836ZM953
1579H832Q781 1613 727 1661T621 1765Q567 1710 514 1662T410 1579H289V1606Q315 1635 349 1673T416 1751T479 1832T525 1907H717Q733 1873 762 1833T825 1752T893 1673T953 1606V1579Z" />
<glyph unicode="&#xc3;" glyph-name="Atilde" horiz-adv-x="1245" d="M1055 0L895 453H350L188 0H0L537 1468H707L1245 0H1055ZM836 618L688 1042Q682 1060 674 1086T656 1142T638 1204T621 1268Q614 1237 605 1204T587 1141T570 1085T555 1042L410 618H836ZM772
1581Q732 1581 693 1598T615 1637T542 1676T475 1694Q430 1694 406 1668T368 1579H264Q269 1639 285 1688T328 1771T392 1824T475 1843Q517 1843 557 1826T636 1787T708 1749T772 1731Q817 1731 840 1757T878 1845H983Q978 1785 962 1737T919 1654T855 1600T772
1581Z" />
<glyph unicode="&#xc4;" glyph-name="Adieresis" horiz-adv-x="1245" d="M1055 0L895 453H350L188 0H0L537 1468H707L1245 0H1055ZM836 618L688 1042Q682 1060 674 1086T656 1142T638 1204T621 1268Q614 1237 605 1204T587 1141T570 1085T555 1042L410 618H836ZM340
1733Q340 1787 368 1811T436 1835Q475 1835 504 1811T533 1733Q533 1680 504 1655T436 1630Q396 1630 368 1655T340 1733ZM715 1733Q715 1787 743 1811T811 1835Q830 1835 847 1829T878 1811T899 1779T907 1733Q907 1680 878 1655T811 1630Q771 1630 743 1655T715
1733Z" />
<glyph unicode="&#xc5;" glyph-name="Aring" horiz-adv-x="1245" d="M1055 0L895 453H350L188 0H0L537 1468H707L1245 0H1055ZM836 618L688 1042Q682 1060 674 1086T656 1142T638 1204T621 1268Q614 1237 605 1204T587 1141T570 1085T555 1042L410 618H836ZM848
1583Q848 1532 831 1492T783 1423T710 1381T619 1366Q569 1366 528 1380T458 1423T412 1490T396 1581Q396 1632 412 1671T457 1739T528 1781T619 1796Q667 1796 709 1782T782 1740T830 1673T848 1583ZM731 1581Q731 1634 700 1664T619 1694Q569 1694 538 1664T506
1581Q506 1528 534 1498T619 1468Q668 1468 699 1498T731 1581Z" />
<glyph unicode="&#xc6;" glyph-name="AE" horiz-adv-x="1745" d="M1622 0H862V453H387L184 0H-2L653 1462H1622V1298H1049V846H1583V684H1049V164H1622V0ZM459 618H862V1298H754L459 618Z" />
<glyph unicode="&#xc7;" glyph-name="Ccedilla" horiz-adv-x="1235" d="M793 1319Q686 1319 599 1279T451 1162T356 977T322 731Q322 590 351 481T440 296T587 182T793 143Q882 143 962 160T1120 201V39Q1081 24 1042 13T961 -6T870 -16T762 -20Q598 -20 478 34T280
187T163 425T125 733Q125 899 168 1037T296 1274T506 1428T793 1483Q901 1483 999 1461T1176 1397L1098 1241Q1035 1273 961 1296T793 1319ZM916 -287Q916 -384 846 -438T625 -492Q603 -492 581 -489T543 -483V-375Q558 -378 582 -379T623 -381Q694 -381 734 -360T774
-289Q774 -265 761 -248T725 -217T671 -195T602 -176L692 0H813L756 -115Q790 -123 819 -136T869 -169T903 -219T916 -287Z" />
<glyph unicode="&#xc8;" glyph-name="Egrave" horiz-adv-x="1081" d="M958 0H199V1462H958V1298H385V846H920V684H385V164H958V0ZM713 1579H593Q558 1607 517 1648T438 1734T368 1818T320 1886V1907H539Q555 1873 576 1833T621 1752T668 1673T713 1606V1579Z" />
<glyph unicode="&#xc9;" glyph-name="Eacute" horiz-adv-x="1081" d="M958 0H199V1462H958V1298H385V846H920V684H385V164H958V0ZM456 1606Q478 1635 501 1673T548 1751T593 1832T630 1907H849V1886Q833 1859 802 1819T732 1734T653 1649T577 1579H456V1606Z" />
<glyph unicode="&#xca;" glyph-name="Ecircumflex" horiz-adv-x="1081" d="M958 0H199V1462H958V1298H385V846H920V684H385V164H958V0ZM907 1579H786Q735 1613 681 1661T575 1765Q521 1710 468 1662T364 1579H243V1606Q269 1635 303 1673T370 1751T433 1832T479
1907H671Q687 1873 716 1833T779 1752T847 1673T907 1606V1579Z" />
<glyph unicode="&#xcb;" glyph-name="Edieresis" horiz-adv-x="1081" d="M958 0H199V1462H958V1298H385V846H920V684H385V164H958V0ZM296 1733Q296 1787 324 1811T392 1835Q431 1835 460 1811T489 1733Q489 1680 460 1655T392 1630Q352 1630 324 1655T296 1733ZM671
1733Q671 1787 699 1811T767 1835Q786 1835 803 1829T834 1811T855 1779T863 1733Q863 1680 834 1655T767 1630Q727 1630 699 1655T671 1733Z" />
<glyph unicode="&#xcc;" glyph-name="Igrave" horiz-adv-x="694" d="M612 0H82V102L254 143V1319L82 1360V1462H612V1360L440 1319V143L612 102V0ZM455 1579H335Q300 1607 259 1648T180 1734T110 1818T62 1886V1907H281Q297 1873 318 1833T363 1752T410 1673T455
1606V1579Z" />
<glyph unicode="&#xcd;" glyph-name="Iacute" horiz-adv-x="694" d="M612 0H82V102L254 143V1319L82 1360V1462H612V1360L440 1319V143L612 102V0ZM257 1606Q279 1635 302 1673T349 1751T394 1832T431 1907H650V1886Q634 1859 603 1819T533 1734T454 1649T378
1579H257V1606Z" />
<glyph unicode="&#xce;" glyph-name="Icircumflex" horiz-adv-x="694" d="M612 0H82V102L254 143V1319L82 1360V1462H612V1360L440 1319V143L612 102V0ZM681 1579H560Q509 1613 455 1661T349 1765Q295 1710 242 1662T138 1579H17V1606Q43 1635 77 1673T144 1751T207
1832T253 1907H445Q461 1873 490 1833T553 1752T621 1673T681 1606V1579Z" />
<glyph unicode="&#xcf;" glyph-name="Idieresis" horiz-adv-x="694" d="M612 0H82V102L254 143V1319L82 1360V1462H612V1360L440 1319V143L612 102V0ZM64 1733Q64 1787 92 1811T160 1835Q199 1835 228 1811T257 1733Q257 1680 228 1655T160 1630Q120 1630 92 1655T64
1733ZM439 1733Q439 1787 467 1811T535 1835Q554 1835 571 1829T602 1811T623 1779T631 1733Q631 1680 602 1655T535 1630Q495 1630 467 1655T439 1733Z" />
<glyph unicode="&#xd0;" glyph-name="Eth" horiz-adv-x="1401" d="M47 805H199V1462H606Q759 1462 883 1416T1094 1280T1228 1055T1276 745Q1276 560 1228 421T1089 188T866 47T565 0H199V643H47V805ZM1079 739Q1079 885 1046 991T950 1167T795 1269T586 1303H385V805H721V643H385V160H547Q811
160 945 306T1079 739Z" />
<glyph unicode="&#xd1;" glyph-name="Ntilde" horiz-adv-x="1493" d="M1294 0H1079L360 1210H352Q358 1133 362 1057Q366 992 368 921T371 793V0H199V1462H412L1128 258H1135Q1132 334 1128 408Q1127 440 1126 473T1123 540T1121 605T1120 662V1462H1294V0ZM905
1581Q865 1581 826 1598T748 1637T675 1676T608 1694Q563 1694 539 1668T501 1579H397Q402 1639 418 1688T461 1771T525 1824T608 1843Q650 1843 690 1826T769 1787T841 1749T905 1731Q950 1731 973 1757T1011 1845H1116Q1111 1785 1095 1737T1052 1654T988 1600T905
1581Z" />
<glyph unicode="&#xd2;" glyph-name="Ograve" horiz-adv-x="1520" d="M1393 733Q1393 564 1353 425T1232 187T1034 34T760 -20Q597 -20 478 34T280 187T163 425T125 735Q125 905 163 1043T280 1280T479 1431T762 1485Q917 1485 1034 1432T1232 1280T1352 1043T1393
733ZM322 733Q322 596 348 487T427 301T563 184T760 143Q874 143 956 183T1092 300T1171 486T1196 733Q1196 871 1171 980T1093 1164T958 1280T762 1321Q648 1321 565 1281T428 1165T348 980T322 733ZM870 1579H750Q715 1607 674 1648T595 1734T525 1818T477 1886V1907H696Q712
1873 733 1833T778 1752T825 1673T870 1606V1579Z" />
<glyph unicode="&#xd3;" glyph-name="Oacute" horiz-adv-x="1520" d="M1393 733Q1393 564 1353 425T1232 187T1034 34T760 -20Q597 -20 478 34T280 187T163 425T125 735Q125 905 163 1043T280 1280T479 1431T762 1485Q917 1485 1034 1432T1232 1280T1352 1043T1393
733ZM322 733Q322 596 348 487T427 301T563 184T760 143Q874 143 956 183T1092 300T1171 486T1196 733Q1196 871 1171 980T1093 1164T958 1280T762 1321Q648 1321 565 1281T428 1165T348 980T322 733ZM651 1606Q673 1635 696 1673T743 1751T788 1832T825 1907H1044V1886Q1028
1859 997 1819T927 1734T848 1649T772 1579H651V1606Z" />
<glyph unicode="&#xd4;" glyph-name="Ocircumflex" horiz-adv-x="1520" d="M1393 733Q1393 564 1353 425T1232 187T1034 34T760 -20Q597 -20 478 34T280 187T163 425T125 735Q125 905 163 1043T280 1280T479 1431T762 1485Q917 1485 1034 1432T1232 1280T1352
1043T1393 733ZM322 733Q322 596 348 487T427 301T563 184T760 143Q874 143 956 183T1092 300T1171 486T1196 733Q1196 871 1171 980T1093 1164T958 1280T762 1321Q648 1321 565 1281T428 1165T348 980T322 733ZM1096 1579H975Q924 1613 870 1661T764 1765Q710
1710 657 1662T553 1579H432V1606Q458 1635 492 1673T559 1751T622 1832T668 1907H860Q876 1873 905 1833T968 1752T1036 1673T1096 1606V1579Z" />
<glyph unicode="&#xd5;" glyph-name="Otilde" horiz-adv-x="1520" d="M1393 733Q1393 564 1353 425T1232 187T1034 34T760 -20Q597 -20 478 34T280 187T163 425T125 735Q125 905 163 1043T280 1280T479 1431T762 1485Q917 1485 1034 1432T1232 1280T1352 1043T1393
733ZM322 733Q322 596 348 487T427 301T563 184T760 143Q874 143 956 183T1092 300T1171 486T1196 733Q1196 871 1171 980T1093 1164T958 1280T762 1321Q648 1321 565 1281T428 1165T348 980T322 733ZM891 1581Q851 1581 812 1598T734 1637T661 1676T594 1694Q549
1694 525 1668T487 1579H383Q388 1639 404 1688T447 1771T511 1824T594 1843Q636 1843 676 1826T755 1787T827 1749T891 1731Q936 1731 959 1757T997 1845H1102Q1097 1785 1081 1737T1038 1654T974 1600T891 1581Z" />
<glyph unicode="&#xd6;" glyph-name="Odieresis" horiz-adv-x="1520" d="M1393 733Q1393 564 1353 425T1232 187T1034 34T760 -20Q597 -20 478 34T280 187T163 425T125 735Q125 905 163 1043T280 1280T479 1431T762 1485Q917 1485 1034 1432T1232 1280T1352 1043T1393
733ZM322 733Q322 596 348 487T427 301T563 184T760 143Q874 143 956 183T1092 300T1171 486T1196 733Q1196 871 1171 980T1093 1164T958 1280T762 1321Q648 1321 565 1281T428 1165T348 980T322 733ZM477 1733Q477 1787 505 1811T573 1835Q612 1835 641 1811T670
1733Q670 1680 641 1655T573 1630Q533 1630 505 1655T477 1733ZM852 1733Q852 1787 880 1811T948 1835Q967 1835 984 1829T1015 1811T1036 1779T1044 1733Q1044 1680 1015 1655T948 1630Q908 1630 880 1655T852 1733Z" />
<glyph unicode="&#xd7;" glyph-name="multiply" horiz-adv-x="1128" d="M459 723L141 1042L246 1147L563 829L885 1147L989 1044L668 723L987 403L885 301L563 618L246 303L143 406L459 723Z" />
<glyph unicode="&#xd8;" glyph-name="Oslash" horiz-adv-x="1520" d="M1300 1454L1208 1305Q1299 1206 1346 1061T1393 733Q1393 564 1353 425T1232 187T1034 34T760 -20Q571 -20 438 51L360 -76L223 2L313 147Q216 247 171 396T125 735Q125 905 163 1043T280
1280T479 1431T762 1485Q856 1485 936 1464T1083 1405L1163 1532L1300 1454ZM322 733Q322 602 345 498T416 315L995 1260Q947 1289 890 1305T762 1321Q648 1321 565 1281T428 1165T348 980T322 733ZM1196 733Q1196 990 1108 1141L530 201Q577 173 634 158T760 143Q874
143 956 183T1092 300T1171 486T1196 733Z" />
<glyph unicode="&#xd9;" glyph-name="Ugrave" horiz-adv-x="1430" d="M1245 1464V516Q1245 402 1212 304T1113 134T946 21T709 -20Q581 -20 483 18T319 128T218 298T184 520V1462H371V510Q371 335 457 239T719 143Q808 143 872 170T977 246T1038 363T1059 512V1464H1245ZM847
1579H727Q692 1607 651 1648T572 1734T502 1818T454 1886V1907H673Q689 1873 710 1833T755 1752T802 1673T847 1606V1579Z" />
<glyph unicode="&#xda;" glyph-name="Uacute" horiz-adv-x="1430" d="M1245 1464V516Q1245 402 1212 304T1113 134T946 21T709 -20Q581 -20 483 18T319 128T218 298T184 520V1462H371V510Q371 335 457 239T719 143Q808 143 872 170T977 246T1038 363T1059 512V1464H1245ZM590
1606Q612 1635 635 1673T682 1751T727 1832T764 1907H983V1886Q967 1859 936 1819T866 1734T787 1649T711 1579H590V1606Z" />
<glyph unicode="&#xdb;" glyph-name="Ucircumflex" horiz-adv-x="1430" d="M1245 1464V516Q1245 402 1212 304T1113 134T946 21T709 -20Q581 -20 483 18T319 128T218 298T184 520V1462H371V510Q371 335 457 239T719 143Q808 143 872 170T977 246T1038 363T1059
512V1464H1245ZM1043 1579H922Q871 1613 817 1661T711 1765Q657 1710 604 1662T500 1579H379V1606Q405 1635 439 1673T506 1751T569 1832T615 1907H807Q823 1873 852 1833T915 1752T983 1673T1043 1606V1579Z" />
<glyph unicode="&#xdc;" glyph-name="Udieresis" horiz-adv-x="1430" d="M1245 1464V516Q1245 402 1212 304T1113 134T946 21T709 -20Q581 -20 483 18T319 128T218 298T184 520V1462H371V510Q371 335 457 239T719 143Q808 143 872 170T977 246T1038 363T1059 512V1464H1245ZM432
1733Q432 1787 460 1811T528 1835Q567 1835 596 1811T625 1733Q625 1680 596 1655T528 1630Q488 1630 460 1655T432 1733ZM807 1733Q807 1787 835 1811T903 1835Q922 1835 939 1829T970 1811T991 1779T999 1733Q999 1680 970 1655T903 1630Q863 1630 835 1655T807
1733Z" />
<glyph unicode="&#xdd;" glyph-name="Yacute" horiz-adv-x="1079" d="M539 723L879 1462H1079L633 569V0H446V559L0 1462H203L539 723ZM442 1606Q464 1635 487 1673T534 1751T579 1832T616 1907H835V1886Q819 1859 788 1819T718 1734T639 1649T563 1579H442V1606Z" />
<glyph unicode="&#xde;" glyph-name="Thorn" horiz-adv-x="1180" d="M1075 782Q1075 691 1048 607T957 459T791 356T535 317H385V0H199V1462H385V1210H561Q695 1210 792 1182T952 1099T1045 964T1075 782ZM385 475H514Q607 475 676 491T791 542T860 634T883 772Q883
915 801 983T545 1051H385V475Z" />
<glyph unicode="&#xdf;" glyph-name="germandbls" horiz-adv-x="1233" d="M1010 1260Q1010 1203 989 1159T936 1078T867 1011T798 954T745 899T723 842Q723 821 730 805T756 769T811 725T903 662Q959 625 1003 589T1077 512T1124 423T1141 313Q1141 226 1113 163T1035
60T914 0T758 -20Q661 -20 592 -3T469 49V215Q495 199 527 184T596 156T670 137T745 129Q801 129 841 141T908 176T946 231T958 303Q958 339 950 368T920 426T862 483T770 547Q707 587 665 621T596 688T558 757T547 834Q547 888 567 927T619 998T686 1057T753 1113T804
1175T825 1253Q825 1295 809 1326T762 1377T691 1407T598 1417Q549 1417 505 1408T428 1374T376 1309T356 1202V0H174V1200Q174 1304 205 1374T293 1487T428 1548T598 1567Q690 1567 766 1548T896 1491T980 1395T1010 1260Z" />
<glyph unicode="&#xe0;" glyph-name="agrave" horiz-adv-x="1087" d="M793 0L756 152H748Q715 107 682 75T610 21T523 -10T412 -20Q343 -20 285 -1T185 59T118 161T94 307Q94 471 209 559T561 655L745 662V731Q745 798 731 843T689 915T621 955T528 967Q445 967
374 943T236 885L172 1022Q246 1062 337 1090T528 1118Q630 1118 704 1098T827 1033T900 919T924 752V0H793ZM459 127Q520 127 572 146T662 203T721 300T743 438V537L600 530Q510 526 449 510T352 466T299 397T283 305Q283 213 331 170T459 127ZM934 1241H814Q779
1269 738 1310T659 1396T589 1480T541 1548V1569H760Q776 1535 797 1495T842 1414T889 1335T934 1268V1241Z" />
<glyph unicode="&#xe1;" glyph-name="aacute" horiz-adv-x="1087" d="M793 0L756 152H748Q715 107 682 75T610 21T523 -10T412 -20Q343 -20 285 -1T185 59T118 161T94 307Q94 471 209 559T561 655L745 662V731Q745 798 731 843T689 915T621 955T528 967Q445 967
374 943T236 885L172 1022Q246 1062 337 1090T528 1118Q630 1118 704 1098T827 1033T900 919T924 752V0H793ZM459 127Q520 127 572 146T662 203T721 300T743 438V537L600 530Q510 526 449 510T352 466T299 397T283 305Q283 213 331 170T459 127ZM446 1268Q468 1297
491 1335T538 1413T583 1494T620 1569H839V1548Q823 1521 792 1481T722 1396T643 1311T567 1241H446V1268Z" />
<glyph unicode="&#xe2;" glyph-name="acircumflex" horiz-adv-x="1087" d="M793 0L756 152H748Q715 107 682 75T610 21T523 -10T412 -20Q343 -20 285 -1T185 59T118 161T94 307Q94 471 209 559T561 655L745 662V731Q745 798 731 843T689 915T621 955T528 967Q445
967 374 943T236 885L172 1022Q246 1062 337 1090T528 1118Q630 1118 704 1098T827 1033T900 919T924 752V0H793ZM459 127Q520 127 572 146T662 203T721 300T743 438V537L600 530Q510 526 449 510T352 466T299 397T283 305Q283 213 331 170T459 127ZM1148 1241H1027Q976
1275 922 1323T816 1427Q762 1372 709 1324T605 1241H484V1268Q510 1297 544 1335T611 1413T674 1494T720 1569H912Q928 1535 957 1495T1020 1414T1088 1335T1148 1268V1241Z" />
<glyph unicode="&#xe3;" glyph-name="atilde" horiz-adv-x="1087" d="M793 0L756 152H748Q715 107 682 75T610 21T523 -10T412 -20Q343 -20 285 -1T185 59T118 161T94 307Q94 471 209 559T561 655L745 662V731Q745 798 731 843T689 915T621 955T528 967Q445 967
374 943T236 885L172 1022Q246 1062 337 1090T528 1118Q630 1118 704 1098T827 1033T900 919T924 752V0H793ZM459 127Q520 127 572 146T662 203T721 300T743 438V537L600 530Q510 526 449 510T352 466T299 397T283 305Q283 213 331 170T459 127ZM955 1243Q915 1243
876 1260T798 1299T725 1338T658 1356Q613 1356 589 1330T551 1241H447Q452 1301 468 1350T511 1433T575 1486T658 1505Q700 1505 740 1488T819 1449T891 1411T955 1393Q1000 1393 1023 1419T1061 1507H1166Q1161 1447 1145 1399T1102 1316T1038 1262T955 1243Z"
/>
<glyph unicode="&#xe4;" glyph-name="adieresis" horiz-adv-x="1087" d="M793 0L756 152H748Q715 107 682 75T610 21T523 -10T412 -20Q343 -20 285 -1T185 59T118 161T94 307Q94 471 209 559T561 655L745 662V731Q745 798 731 843T689 915T621 955T528 967Q445
967 374 943T236 885L172 1022Q246 1062 337 1090T528 1118Q630 1118 704 1098T827 1033T900 919T924 752V0H793ZM459 127Q520 127 572 146T662 203T721 300T743 438V537L600 530Q510 526 449 510T352 466T299 397T283 305Q283 213 331 170T459 127ZM529 1395Q529
1449 557 1473T625 1497Q664 1497 693 1473T722 1395Q722 1342 693 1317T625 1292Q585 1292 557 1317T529 1395ZM904 1395Q904 1449 932 1473T1000 1497Q1019 1497 1036 1491T1067 1473T1088 1441T1096 1395Q1096 1342 1067 1317T1000 1292Q960 1292 932 1317T904
1395Z" />
<glyph unicode="&#xe5;" glyph-name="aring" horiz-adv-x="1087" d="M793 0L756 152H748Q715 107 682 75T610 21T523 -10T412 -20Q343 -20 285 -1T185 59T118 161T94 307Q94 471 209 559T561 655L745 662V731Q745 798 731 843T689 915T621 955T528 967Q445 967
374 943T236 885L172 1022Q246 1062 337 1090T528 1118Q630 1118 704 1098T827 1033T900 919T924 752V0H793ZM459 127Q520 127 572 146T662 203T721 300T743 438V537L600 530Q510 526 449 510T352 466T299 397T283 305Q283 213 331 170T459 127ZM1039 1458Q1039
1407 1022 1367T974 1298T901 1256T810 1241Q760 1241 719 1255T649 1298T603 1365T587 1456Q587 1507 603 1546T648 1614T719 1656T810 1671Q858 1671 900 1657T973 1615T1021 1548T1039 1458ZM922 1456Q922 1509 891 1539T810 1569Q760 1569 729 1539T697 1456Q697
1403 725 1373T810 1343Q859 1343 890 1373T922 1456Z" />
<glyph unicode="&#xe6;" glyph-name="ae" horiz-adv-x="1706" d="M94 307Q94 471 209 559T561 655L745 662V731Q745 798 731 843T689 915T621 955T528 967Q445 967 374 943T236 885L172 1022Q246 1062 337 1090T528 1118Q659 1118 742 1076T868 940Q919 1025 1002
1071T1188 1118Q1285 1118 1362 1083T1493 983T1575 828T1604 627V514H932Q937 321 1010 230T1231 139Q1280 139 1322 144T1404 158T1480 182T1554 215V53Q1515 34 1478 20T1401 -3T1319 -16T1227 -20Q1089 -20 988 37T825 209Q791 155 753 113T668 41T562 -4T430
-20Q359 -20 298 -1T191 59T120 161T94 307ZM283 305Q283 213 331 170T459 127Q520 127 572 146T662 203T721 300T743 438V537L600 530Q510 526 449 510T352 466T299 397T283 305ZM1184 967Q1074 967 1011 889T936 662H1407Q1407 730 1394 786T1354 883T1284 945T1184
967Z" />
<glyph unicode="&#xe7;" glyph-name="ccedilla" horiz-adv-x="948" d="M594 -20Q493 -20 405 11T252 111T150 286T113 543Q113 700 151 809T255 987T411 1087T602 1118Q680 1118 754 1101T879 1059L825 905Q802 915 774 924T716 941T657 953T602 958Q445 958 373
858T301 545Q301 334 373 237T594 139Q675 139 740 157T860 201V39Q806 10 745 -5T594 -20ZM730 -287Q730 -384 660 -438T439 -492Q417 -492 395 -489T357 -483V-375Q372 -378 396 -379T437 -381Q508 -381 548 -360T588 -289Q588 -265 575 -248T539 -217T485 -195T416
-176L506 0H627L570 -115Q604 -123 633 -136T683 -169T717 -219T730 -287Z" />
<glyph unicode="&#xe8;" glyph-name="egrave" horiz-adv-x="1096" d="M608 -20Q498 -20 407 17T251 125T149 301T113 541Q113 677 146 784T239 965T382 1079T567 1118Q666 1118 745 1083T879 983T963 828T993 627V514H301Q306 321 382 230T610 139Q661 139 704
144T788 158T867 182T944 215V53Q904 34 866 20T787 -3T703 -16T608 -20ZM563 967Q449 967 383 889T305 662H797Q797 730 784 786T742 883T669 945T563 967ZM934 1241H814Q779 1269 738 1310T659 1396T589 1480T541 1548V1569H760Q776 1535 797 1495T842 1414T889
1335T934 1268V1241Z" />
<glyph unicode="&#xe9;" glyph-name="eacute" horiz-adv-x="1096" d="M608 -20Q498 -20 407 17T251 125T149 301T113 541Q113 677 146 784T239 965T382 1079T567 1118Q666 1118 745 1083T879 983T963 828T993 627V514H301Q306 321 382 230T610 139Q661 139 704
144T788 158T867 182T944 215V53Q904 34 866 20T787 -3T703 -16T608 -20ZM563 967Q449 967 383 889T305 662H797Q797 730 784 786T742 883T669 945T563 967ZM475 1268Q497 1297 520 1335T567 1413T612 1494T649 1569H868V1548Q852 1521 821 1481T751 1396T672 1311T596
1241H475V1268Z" />
<glyph unicode="&#xea;" glyph-name="ecircumflex" horiz-adv-x="1096" d="M608 -20Q498 -20 407 17T251 125T149 301T113 541Q113 677 146 784T239 965T382 1079T567 1118Q666 1118 745 1083T879 983T963 828T993 627V514H301Q306 321 382 230T610 139Q661 139
704 144T788 158T867 182T944 215V53Q904 34 866 20T787 -3T703 -16T608 -20ZM563 967Q449 967 383 889T305 662H797Q797 730 784 786T742 883T669 945T563 967ZM1144 1241H1023Q972 1275 918 1323T812 1427Q758 1372 705 1324T601 1241H480V1268Q506 1297 540
1335T607 1413T670 1494T716 1569H908Q924 1535 953 1495T1016 1414T1084 1335T1144 1268V1241Z" />
<glyph unicode="&#xeb;" glyph-name="edieresis" horiz-adv-x="1096" d="M608 -20Q498 -20 407 17T251 125T149 301T113 541Q113 677 146 784T239 965T382 1079T567 1118Q666 1118 745 1083T879 983T963 828T993 627V514H301Q306 321 382 230T610 139Q661 139
704 144T788 158T867 182T944 215V53Q904 34 866 20T787 -3T703 -16T608 -20ZM563 967Q449 967 383 889T305 662H797Q797 730 784 786T742 883T669 945T563 967ZM525 1395Q525 1449 553 1473T621 1497Q660 1497 689 1473T718 1395Q718 1342 689 1317T621 1292Q581
1292 553 1317T525 1395ZM900 1395Q900 1449 928 1473T996 1497Q1015 1497 1032 1491T1063 1473T1084 1441T1092 1395Q1092 1342 1063 1317T996 1292Q956 1292 928 1317T900 1395Z" />
<glyph unicode="&#xec;" glyph-name="igrave" horiz-adv-x="530" d="M356 0H174V1098H356V0ZM359 1241H239Q204 1269 163 1310T84 1396T14 1480T-34 1548V1569H185Q201 1535 222 1495T267 1414T314 1335T359 1268V1241Z" />
<glyph unicode="&#xed;" glyph-name="iacute" horiz-adv-x="530" d="M356 0H174V1098H356V0ZM185 1268Q207 1297 230 1335T277 1413T322 1494T359 1569H578V1548Q562 1521 531 1481T461 1396T382 1311T306 1241H185V1268Z" />
<glyph unicode="&#xee;" glyph-name="icircumflex" horiz-adv-x="530" d="M356 0H174V1098H356V0ZM597 1241H476Q425 1275 371 1323T265 1427Q211 1372 158 1324T54 1241H-67V1268Q-41 1297 -7 1335T60 1413T123 1494T169 1569H361Q377 1535 406 1495T469 1414T537
1335T597 1268V1241Z" />
<glyph unicode="&#xef;" glyph-name="idieresis" horiz-adv-x="530" d="M356 0H174V1098H356V0ZM-18 1395Q-18 1449 10 1473T78 1497Q117 1497 146 1473T175 1395Q175 1342 146 1317T78 1292Q38 1292 10 1317T-18 1395ZM357 1395Q357 1449 385 1473T453 1497Q472
1497 489 1491T520 1473T541 1441T549 1395Q549 1342 520 1317T453 1292Q413 1292 385 1317T357 1395Z" />
<glyph unicode="&#xf0;" glyph-name="eth" horiz-adv-x="1182" d="M1069 573Q1069 431 1036 321T940 135T788 20T588 -20Q484 -20 397 13T246 109T147 265T111 477Q111 596 142 688T233 843T376 938T565 971Q667 971 744 942T864 852L872 856Q841 974 781 1070T631
1247L375 1094L301 1208L518 1339Q478 1367 436 1394T346 1448L416 1571Q481 1539 542 1503T662 1423L889 1561L963 1448L768 1331Q835 1266 890 1188T985 1017T1047 813T1069 573ZM881 526Q881 582 864 635T812 730T722 796T592 821Q515 821 461 798T371 731T320
622T303 471Q303 395 319 333T371 225T461 156T592 131Q746 131 813 230T881 526Z" />
<glyph unicode="&#xf1;" glyph-name="ntilde" horiz-adv-x="1206" d="M860 0V707Q860 837 808 902T643 967Q562 967 507 941T419 864T371 739T356 569V0H174V1098H322L348 950H358Q383 993 417 1024T493 1077T580 1108T674 1118Q857 1118 949 1023T1042 717V0H860ZM1015
1243Q975 1243 936 1260T858 1299T785 1338T718 1356Q673 1356 649 1330T611 1241H507Q512 1301 528 1350T571 1433T635 1486T718 1505Q760 1505 800 1488T879 1449T951 1411T1015 1393Q1060 1393 1083 1419T1121 1507H1226Q1221 1447 1205 1399T1162 1316T1098
1262T1015 1243Z" />
<glyph unicode="&#xf2;" glyph-name="ograve" horiz-adv-x="1182" d="M1069 551Q1069 414 1036 308T940 129T788 18T588 -20Q485 -20 398 18T248 128T149 307T113 551Q113 687 146 792T242 970T393 1080T594 1118Q697 1118 784 1081T934 971T1033 793T1069 551ZM301
551Q301 342 369 237T592 131Q746 131 813 236T881 551Q881 760 813 863T590 967Q436 967 369 864T301 551ZM1002 1241H882Q847 1269 806 1310T727 1396T657 1480T609 1548V1569H828Q844 1535 865 1495T910 1414T957 1335T1002 1268V1241Z" />
<glyph unicode="&#xf3;" glyph-name="oacute" horiz-adv-x="1182" d="M1069 551Q1069 414 1036 308T940 129T788 18T588 -20Q485 -20 398 18T248 128T149 307T113 551Q113 687 146 792T242 970T393 1080T594 1118Q697 1118 784 1081T934 971T1033 793T1069 551ZM301
551Q301 342 369 237T592 131Q746 131 813 236T881 551Q881 760 813 863T590 967Q436 967 369 864T301 551ZM473 1268Q495 1297 518 1335T565 1413T610 1494T647 1569H866V1548Q850 1521 819 1481T749 1396T670 1311T594 1241H473V1268Z" />
<glyph unicode="&#xf4;" glyph-name="ocircumflex" horiz-adv-x="1182" d="M1069 551Q1069 414 1036 308T940 129T788 18T588 -20Q485 -20 398 18T248 128T149 307T113 551Q113 687 146 792T242 970T393 1080T594 1118Q697 1118 784 1081T934 971T1033 793T1069
551ZM301 551Q301 342 369 237T592 131Q746 131 813 236T881 551Q881 760 813 863T590 967Q436 967 369 864T301 551ZM1173 1241H1052Q1001 1275 947 1323T841 1427Q787 1372 734 1324T630 1241H509V1268Q535 1297 569 1335T636 1413T699 1494T745 1569H937Q953
1535 982 1495T1045 1414T1113 1335T1173 1268V1241Z" />
<glyph unicode="&#xf5;" glyph-name="otilde" horiz-adv-x="1182" d="M1069 551Q1069 414 1036 308T940 129T788 18T588 -20Q485 -20 398 18T248 128T149 307T113 551Q113 687 146 792T242 970T393 1080T594 1118Q697 1118 784 1081T934 971T1033 793T1069 551ZM301
551Q301 342 369 237T592 131Q746 131 813 236T881 551Q881 760 813 863T590 967Q436 967 369 864T301 551ZM992 1243Q952 1243 913 1260T835 1299T762 1338T695 1356Q650 1356 626 1330T588 1241H484Q489 1301 505 1350T548 1433T612 1486T695 1505Q737 1505 777
1488T856 1449T928 1411T992 1393Q1037 1393 1060 1419T1098 1507H1203Q1198 1447 1182 1399T1139 1316T1075 1262T992 1243Z" />
<glyph unicode="&#xf6;" glyph-name="odieresis" horiz-adv-x="1182" d="M1069 551Q1069 414 1036 308T940 129T788 18T588 -20Q485 -20 398 18T248 128T149 307T113 551Q113 687 146 792T242 970T393 1080T594 1118Q697 1118 784 1081T934 971T1033 793T1069
551ZM301 551Q301 342 369 237T592 131Q746 131 813 236T881 551Q881 760 813 863T590 967Q436 967 369 864T301 551ZM556 1395Q556 1449 584 1473T652 1497Q691 1497 720 1473T749 1395Q749 1342 720 1317T652 1292Q612 1292 584 1317T556 1395ZM931 1395Q931
1449 959 1473T1027 1497Q1046 1497 1063 1491T1094 1473T1115 1441T1123 1395Q1123 1342 1094 1317T1027 1292Q987 1292 959 1317T931 1395Z" />
<glyph unicode="&#xf7;" glyph-name="divide" horiz-adv-x="1128" d="M102 647V797H1026V647H102ZM449 373Q449 408 458 431T482 470T518 491T563 498Q586 498 607 492T644 470T669 432T678 373Q678 340 669 317T644 278T607 255T563 248Q539 248 519 255T483
277T458 316T449 373ZM449 1071Q449 1106 458 1129T482 1168T518 1189T563 1196Q586 1196 607 1190T644 1168T669 1130T678 1071Q678 1038 669 1015T644 976T607 953T563 946Q539 946 519 953T483 975T458 1014T449 1071Z" />
<glyph unicode="&#xf8;" glyph-name="oslash" horiz-adv-x="1182" d="M1071 551Q1071 414 1038 308T942 129T790 18T590 -20Q465 -20 367 33L299 -76L168 -2L248 129Q185 201 150 307T115 551Q115 687 148 792T244 970T395 1080T596 1118Q659 1118 715 1104T821
1061L889 1169L1020 1096L940 967Q1002 894 1036 790T1071 551ZM303 551Q303 467 312 402T344 285L741 932Q712 949 675 958T592 967Q438 967 371 864T303 551ZM883 551Q883 710 844 809L446 164Q477 147 513 139T594 131Q748 131 815 236T883 551Z" />
<glyph unicode="&#xf9;" glyph-name="ugrave" horiz-adv-x="1206" d="M885 0L858 147H848Q823 104 789 73T713 21T626 -10T532 -20Q441 -20 372 3T257 75T188 200T164 381V1098H346V391Q346 261 399 196T563 131Q644 131 699 157T787 233T835 358T850 528V1098H1032V0H885ZM949
1241H829Q794 1269 753 1310T674 1396T604 1480T556 1548V1569H775Q791 1535 812 1495T857 1414T904 1335T949 1268V1241Z" />
<glyph unicode="&#xfa;" glyph-name="uacute" horiz-adv-x="1206" d="M885 0L858 147H848Q823 104 789 73T713 21T626 -10T532 -20Q441 -20 372 3T257 75T188 200T164 381V1098H346V391Q346 261 399 196T563 131Q644 131 699 157T787 233T835 358T850 528V1098H1032V0H885ZM489
1268Q511 1297 534 1335T581 1413T626 1494T663 1569H882V1548Q866 1521 835 1481T765 1396T686 1311T610 1241H489V1268Z" />
<glyph unicode="&#xfb;" glyph-name="ucircumflex" horiz-adv-x="1206" d="M885 0L858 147H848Q823 104 789 73T713 21T626 -10T532 -20Q441 -20 372 3T257 75T188 200T164 381V1098H346V391Q346 261 399 196T563 131Q644 131 699 157T787 233T835 358T850 528V1098H1032V0H885ZM930
1241H809Q758 1275 704 1323T598 1427Q544 1372 491 1324T387 1241H266V1268Q292 1297 326 1335T393 1413T456 1494T502 1569H694Q710 1535 739 1495T802 1414T870 1335T930 1268V1241Z" />
<glyph unicode="&#xfc;" glyph-name="udieresis" horiz-adv-x="1206" d="M885 0L858 147H848Q823 104 789 73T713 21T626 -10T532 -20Q441 -20 372 3T257 75T188 200T164 381V1098H346V391Q346 261 399 196T563 131Q644 131 699 157T787 233T835 358T850 528V1098H1032V0H885ZM309
1395Q309 1449 337 1473T405 1497Q444 1497 473 1473T502 1395Q502 1342 473 1317T405 1292Q365 1292 337 1317T309 1395ZM684 1395Q684 1449 712 1473T780 1497Q799 1497 816 1491T847 1473T868 1441T876 1395Q876 1342 847 1317T780 1292Q740 1292 712 1317T684
1395Z" />
<glyph unicode="&#xfd;" glyph-name="yacute" horiz-adv-x="1001" d="M10 1098H199L414 485Q428 445 442 401T469 313T491 228T504 152H510Q515 177 526 220T550 311T578 407T604 487L803 1098H991L557 -143Q529 -224 497 -288T421 -398T320 -467T182 -492Q130
-492 92 -487T27 -475V-330Q48 -335 80 -338T147 -342Q195 -342 230 -331T291 -297T335 -243T369 -170L426 -10L10 1098ZM407 1268Q429 1297 452 1335T499 1413T544 1494T581 1569H800V1548Q784 1521 753 1481T683 1396T604 1311T528 1241H407V1268Z" />
<glyph unicode="&#xfe;" glyph-name="thorn" horiz-adv-x="1200" d="M356 950Q379 985 408 1015T475 1068T562 1104T670 1118Q764 1118 841 1082T972 975T1057 797T1087 551Q1087 410 1057 304T973 125T841 17T670 -20Q611 -20 563 -7T477 27T409 78T356 139H344Q347
105 350 74Q352 48 354 21T356 -23V-492H174V1556H356V1098L348 950H356ZM635 967Q559 967 507 944T422 874T374 757T356 592V551Q356 450 369 372T415 240T502 159T637 131Q772 131 835 240T899 553Q899 761 836 864T635 967Z" />
<glyph unicode="&#xff;" glyph-name="ydieresis" horiz-adv-x="1001" d="M10 1098H199L414 485Q428 445 442 401T469 313T491 228T504 152H510Q515 177 526 220T550 311T578 407T604 487L803 1098H991L557 -143Q529 -224 497 -288T421 -398T320 -467T182 -492Q130
-492 92 -487T27 -475V-330Q48 -335 80 -338T147 -342Q195 -342 230 -331T291 -297T335 -243T369 -170L426 -10L10 1098ZM484 1395Q484 1449 512 1473T580 1497Q619 1497 648 1473T677 1395Q677 1342 648 1317T580 1292Q540 1292 512 1317T484 1395ZM859 1395Q859
1449 887 1473T955 1497Q974 1497 991 1491T1022 1473T1043 1441T1051 1395Q1051 1342 1022 1317T955 1292Q915 1292 887 1317T859 1395Z" />
<glyph unicode="&#x2013;" glyph-name="endash" horiz-adv-x="1024" d="M82 465V633H942V465H82Z" />
<glyph unicode="&#x2014;" glyph-name="emdash" horiz-adv-x="2048" d="M82 465V633H1966V465H82Z" />
<glyph unicode="&#x2018;" glyph-name="quoteleft" horiz-adv-x="358" d="M37 961L23 983Q37 1037 56 1098T99 1221T148 1344T199 1462H336Q321 1401 307 1335T279 1204T255 1076T236 961H37Z" />
<glyph unicode="&#x2019;" glyph-name="quoteright" horiz-adv-x="358" d="M322 1462L336 1440Q322 1385 303 1325T260 1202T211 1078T160 961H23Q37 1021 51 1087T79 1219T104 1347T123 1462H322Z" />
<glyph unicode="&#x201a;" glyph-name="quotesinglbase" horiz-adv-x="512" d="M362 238L377 215Q363 161 344 100T301 -23T252 -146T201 -264H63Q78 -203 92 -137T120 -6T145 122T164 238H362Z" />
<glyph unicode="&#x201c;" glyph-name="quotedblleft" horiz-adv-x="743" d="M422 961L408 983Q422 1037 441 1098T484 1221T533 1344T584 1462H721Q706 1401 692 1335T664 1204T640 1076T621 961H422ZM37 961L23 983Q37 1037 56 1098T99 1221T148 1344T199 1462H336Q321
1401 307 1335T279 1204T255 1076T236 961H37Z" />
<glyph unicode="&#x201d;" glyph-name="quotedblright" horiz-adv-x="743" d="M322 1462L336 1440Q322 1385 303 1325T260 1202T211 1078T160 961H23Q37 1021 51 1087T79 1219T104 1347T123 1462H322ZM707 1462L721 1440Q707 1385 688 1325T645 1202T596 1078T545
961H408Q422 1021 436 1087T464 1219T489 1347T508 1462H707Z" />
<glyph unicode="&#x201e;" glyph-name="quotedblbase" horiz-adv-x="897" d="M362 238L377 215Q363 161 344 100T301 -23T252 -146T201 -264H63Q78 -203 92 -137T120 -6T145 122T164 238H362ZM748 238L762 215Q748 161 729 100T686 -23T637 -146T586 -264H449Q463
-203 477 -137T505 -6T530 122T549 238H748Z" />
<glyph unicode="&#x2022;" glyph-name="bullet" horiz-adv-x="770" d="M150 748Q150 819 168 869T217 950T292 996T385 1010Q434 1010 477 996T552 951T602 869T621 748Q621 678 603 628T552 547T477 500T385 485Q335 485 292 500T218 546T168 628T150 748Z" />
<glyph unicode="&#x2039;" glyph-name="guilsinglleft" horiz-adv-x="590" d="M82 553L391 967L508 889L270 541L508 193L391 115L82 526V553Z" />
<glyph unicode="&#x203a;" glyph-name="guilsinglright" horiz-adv-x="590" d="M508 526L199 115L82 193L319 541L82 889L199 967L508 553V526Z" />
</font>
</defs>
</svg>
