<?xml version="1.0" standalone="no"?>
<!DOCTYPE svg PUBLIC "-//W3C//DTD SVG 1.1//EN" "http://www.w3.org/Graphics/SVG/1.1/DTD/svg11.dtd">
<svg xmlns="http://www.w3.org/2000/svg">
<defs >
<font id="AlegreyaSansSC" horiz-adv-x="505" ><font-face
    font-family="Alegreya Sans SC Medium"
    units-per-em="1000"
    panose-1="0 0 6 0 0 0 0 0 0 0"
    ascent="900"
    descent="-300"
    alphabetic="0" />
<glyph unicode=" " glyph-name="space" horiz-adv-x="160" />
<glyph unicode="!" glyph-name="exclam" horiz-adv-x="260" d="M162 226L103 218L92 230L89 646L98 658L178 663L190 650L162 226ZM146 108T160 94T174 53Q174 26 159 10T118 -6Q92 -6 78 9T63 50Q63 76 79 92T121 108Q146 108 160 94Z" />
<glyph unicode="&quot;" glyph-name="quotedbl" horiz-adv-x="310" d="M113 434L63 427L55 434L56 634L134 640L141 632L113 434ZM240 434L190 427L182 434L184 634L262 640L269 632L240 434Z" />
<glyph unicode="#" glyph-name="numbersign" horiz-adv-x="529" d="M369 250H468L475 243L470 189H356L323 32H264L258 40L290 189H184L151 32H91L86 40L118 189H27L20 196L25 250H130L154 361H61L54 368L59 422H167L199 574H257L264 565L234 422H339L371 574H429L436
565L406 422H503L509 415L504 361H393L369 250ZM221 361L197 250H302L326 361H221Z" />
<glyph unicode="$" glyph-name="dollar" horiz-adv-x="441" d="M387 89T347 47T233 -4L223 -132H173L165 -123L174 -5Q104 0 43 26L54 112L65 117Q112 72 179 61L191 219Q127 245 92 275T57 359Q57 416 99 456T213 503L223 643H273L283 634L273 504Q324 499 373
480L359 400L345 397Q308 425 268 435L256 283Q318 257 352 227T387 144Q387 89 347 47ZM141 336T198 308L208 437Q177 431 159 412T141 371Q141 336 198 308ZM268 68T285 87T303 129Q303 166 248 193L238 61Q268 68 285 87Z" />
<glyph unicode="%" glyph-name="percent" horiz-adv-x="836" d="M660 640L191 -91L146 -65L141 -52L610 681L653 655L660 640ZM263 648T300 603T337 475Q337 385 298 338T182 290Q112 290 74 335T36 464Q36 553 76 600T193 648Q263 648 300 603ZM104 577T104 470Q104
356 187 356Q270 356 270 465Q270 577 186 577Q104 577 104 470ZM725 353T762 308T799 180Q799 90 760 43T644 -5Q574 -5 536 40T498 169Q498 258 538 305T655 353Q725 353 762 308ZM567 282T567 175Q567 61 649 61Q732 61 732 170Q732 282 648 282Q567 282 567
175Z" />
<glyph unicode="&amp;" glyph-name="ampersand" horiz-adv-x="761" d="M796 257T772 239T712 217Q682 217 605 232Q596 160 557 105T452 20T305 -11Q179 -11 109 59T38 252Q38 328 65 386T140 477T247 509Q303 509 334 482T366 414Q366 409 364 395Q553 535 632
711H641Q672 681 682 643Q648 566 563 477T365 311T136 188Q152 129 197 97T314 64Q405 64 465 114T531 247Q499 252 484 252Q438 252 406 196L395 195L378 253Q399 288 423 305T484 326Q514 326 597 309Q688 292 711 292Q765 292 788 347L800 348L817 291Q796
257 772 239ZM190 441T158 394T126 266V260Q197 288 265 329Q303 359 301 398Q299 419 284 430T244 441Q190 441 158 394Z" />
<glyph unicode="&apos;" glyph-name="quotesingle" horiz-adv-x="182" d="M113 434L63 427L55 434L56 634L134 640L141 632L113 434Z" />
<glyph unicode="(" glyph-name="parenleft" horiz-adv-x="291" d="M286 620Q219 564 190 479T159 256Q160 122 189 40T286 -99V-108L250 -140H240Q154 -77 116 15T77 255Q78 408 116 503T240 662H250L286 629V620Z" />
<glyph unicode=")" glyph-name="parenright" horiz-adv-x="291" d="M4 -99Q71 -43 100 42T131 265Q130 399 101 481T4 620V629L40 661H50Q136 598 174 506T213 266Q212 113 174 18T50 -141H40L4 -108V-99Z" />
<glyph unicode="*" glyph-name="asterisk" horiz-adv-x="378" d="M207 609L169 605L163 612L160 726Q189 737 228 737L233 730L207 609ZM144 560L135 556L32 589Q32 631 42 658L49 660L149 597L144 560ZM344 606T355 575L350 569L235 556L218 590L222 599L323
637Q344 606 355 575ZM294 445Q281 423 247 395L238 397L193 513L220 537L230 536L294 445ZM175 509L117 415Q96 421 54 446V454L141 536L174 519L175 509Z" />
<glyph unicode="+" glyph-name="plus" horiz-adv-x="480" d="M275 298H445L452 291L447 228H275V56L213 51L205 58V228H35L28 235L33 298H205V470L268 476L275 468V298Z" />
<glyph unicode="," glyph-name="comma" horiz-adv-x="229" d="M177 75T177 31Q177 -43 71 -119L38 -89L37 -81Q92 -36 92 11Q92 42 61 64V73Q98 97 134 106Q177 75 177 31Z" />
<glyph unicode="-" glyph-name="hyphen" horiz-adv-x="306" d="M277 236L37 200L28 209V273L268 308L277 300V236Z" />
<glyph unicode="." glyph-name="period" horiz-adv-x="229" d="M141 108T155 94T169 53Q169 26 154 10T113 -6Q87 -6 73 9T58 50Q58 76 73 92T116 108Q141 108 155 94Z" />
<glyph unicode="/" glyph-name="slash" horiz-adv-x="286" d="M90 -114H19L13 -105L218 679H287L295 669L90 -114Z" />
<glyph unicode="0" glyph-name="zero" horiz-adv-x="525" d="M371 508T426 443T482 256Q482 130 424 61T257 -8Q155 -8 99 57T43 242Q43 369 102 438T270 508Q371 508 426 443ZM123 414T123 249Q123 82 263 82Q403 82 403 244Q403 414 262 414Q123 414 123 249Z" />
<glyph unicode="1" glyph-name="one" horiz-adv-x="351" d="M234 207L239 0H136L142 196L141 390L19 356L10 362V443L225 506L240 495L234 207Z" />
<glyph unicode="2" glyph-name="two" horiz-adv-x="462" d="M299 506T340 475T381 390Q381 350 354 301T265 184L176 83L178 78H341L428 86L435 79L422 -5L312 0H86L49 -2L44 2V65L181 209Q233 265 257 301T281 365Q281 389 263 404T213 419Q142 419 78 355H67L50
434Q142 506 235 506Q299 506 340 475Z" />
<glyph unicode="3" glyph-name="three" horiz-adv-x="420" d="M269 507T313 471T358 376Q358 334 334 295T260 229V225Q376 194 376 93Q376 37 347 -6T263 -72T139 -96Q92 -96 36 -87L31 -3L38 4Q89 -18 144 -18Q206 -18 242 9T279 85Q279 126 250 149T166 175H103L97
182L100 252L144 253Q170 253 196 266T238 302T255 354Q255 387 234 405T176 424Q122 424 54 369H43L28 446Q107 507 196 507Q269 507 313 471Z" />
<glyph unicode="4" glyph-name="four" horiz-adv-x="490" d="M365 68L369 -83L363 -91L285 -97L279 -90L282 68H106L31 66L24 75V141L273 501H367L364 147H454L460 138L455 66L365 68ZM283 147V382H275L113 147H283Z" />
<glyph unicode="5" glyph-name="five" horiz-adv-x="423" d="M375 419L368 412L286 419H152L149 282L211 269Q302 250 340 212T379 111Q379 50 348 3T261 -71T134 -98Q92 -98 33 -87L26 -1L34 7Q91 -18 148 -18Q210 -18 246 13T283 95Q283 135 256 159T166 194L77
211L69 220L74 490L88 504L143 501H282L380 506L386 499L375 419Z" />
<glyph unicode="6" glyph-name="six" horiz-adv-x="475" d="M350 354T393 307T436 183Q436 129 412 86T343 17T234 -9Q139 -9 90 49T41 212Q41 338 117 437T334 595H340L416 549V539Q301 498 237 447T149 325L156 317Q211 354 274 354Q350 354 393 307ZM290 60T317
88T345 169Q345 223 319 252T245 281Q190 281 134 238L133 214Q133 136 158 98T241 60Q290 60 317 88Z" />
<glyph unicode="7" glyph-name="seven" horiz-adv-x="424" d="M350 501L395 503L396 428L214 30L165 -101L83 -79L77 -62L300 417H108L25 408L19 418L26 505L125 501H350Z" />
<glyph unicode="8" glyph-name="eight" horiz-adv-x="482" d="M326 593T369 555T413 451Q413 403 389 370T321 310V305Q372 280 401 249T431 161Q431 83 376 38T228 -8Q142 -8 94 33T45 143Q45 237 158 292V297Q67 344 67 435Q67 508 117 550T250 593Q326 593
369 555ZM201 521T176 499T151 438Q151 399 176 377T248 337Q288 356 310 379T333 441Q333 478 310 499T245 521Q201 521 176 499ZM183 245T157 221T131 155Q131 113 159 88T237 63Q288 63 317 88T346 154Q346 183 331 202T293 234T230 262Q183 245 157 221Z" />
<glyph unicode="9" glyph-name="nine" horiz-adv-x="475" d="M125 148T82 195T39 319Q39 373 63 416T132 485T241 511Q336 511 385 453T434 290Q434 164 358 65T141 -93H135L59 -47V-37Q174 4 238 55T326 177L319 185Q264 148 201 148Q125 148 82 195ZM185 442T158
414T130 333Q130 279 156 250T230 221Q285 221 341 264L342 288Q342 366 317 404T234 442Q185 442 158 414Z" />
<glyph unicode=":" glyph-name="colon" horiz-adv-x="229" d="M393 108T407 94T421 53Q421 26 406 10T365 -6Q339 -6 325 9T310 50Q310 76 325 92T368 108Q393 108 407 94ZM137 374T151 360T165 319Q165 292 150 276T109 260Q83 260 69 275T54 316Q54 342 69 358T112
374Q137 374 151 360Z" />
<glyph unicode=";" glyph-name="semicolon" horiz-adv-x="229" d="M429 75T429 31Q429 -43 323 -119L290 -89L289 -81Q344 -36 344 11Q344 42 313 64V73Q350 97 386 106Q429 75 429 31ZM137 374T151 360T165 319Q165 292 150 276T109 260Q83 260 69 275T54 316Q54
342 69 358T112 374Q137 374 151 360Z" />
<glyph unicode="&lt;" glyph-name="less" horiz-adv-x="480" d="M35 304V221L415 73L425 80L440 138L111 262V268L438 399L443 408L421 466L43 314L35 304Z" />
<glyph unicode="=" glyph-name="equal" horiz-adv-x="480" d="M447 315H35L28 322L33 385H445L452 378L447 315ZM447 396H35L28 403L33 466H445L452 459L447 396Z" />
<glyph unicode="&gt;" glyph-name="greater" horiz-adv-x="480" d="M445 304V221L65 73L55 80L40 138L369 262V268L42 399L37 408L59 466L437 314L445 304Z" />
<glyph unicode="?" glyph-name="question" horiz-adv-x="335" d="M210 657T277 616T345 505Q345 423 258 370L180 320L178 316L184 224L112 215L104 223L96 340L101 350L194 402Q253 436 253 489Q253 581 62 592L55 602L74 659L85 664Q210 657 277 616ZM176 108T190
94T205 53Q205 26 190 10T148 -6Q122 -6 108 9T94 50Q94 76 109 92T151 108Q176 108 190 94Z" />
<glyph unicode="@" glyph-name="at" horiz-adv-x="833" d="M806 160T714 81T451 -3L477 182H466Q396 64 323 -8H307Q220 34 220 152Q220 221 247 287T327 402T457 464H462L531 442L588 465L599 460L549 111L547 70Q637 82 687 143T738 301Q738 377 705 435T609
525T463 557Q356 557 274 512T147 385T102 199Q102 93 149 16T283 -103T484 -144L488 -154L458 -203Q330 -201 234 -155T86 -21T33 186Q33 312 86 411T238 567T464 623Q567 623 644 584T763 472T806 304Q806 160 714 81ZM345 91T372 121T433 208T501 346L502 354L503
367L439 391Q377 391 341 332T305 181Q305 91 333 91Q345 91 372 121Z" />
<glyph unicode="A" glyph-name="A" horiz-adv-x="587" d="M462 0L447 72L419 161L283 164L160 161L130 77L114 0H11L240 642H361L568 0H462ZM301 541H294L189 245L290 243L393 245L301 541Z" />
<glyph unicode="B" glyph-name="B" horiz-adv-x="554" d="M518 306T518 180Q518 -4 243 -4Q148 -4 87 0H86L93 193L86 642L286 643Q379 643 430 603T482 485Q482 431 457 393T386 334Q518 306 518 180ZM376 521T349 542T258 563H190L187 366L290 363Q376 384 376
473Q376 521 349 542ZM334 76T374 104T414 186Q414 272 303 287L186 286L185 202L188 79Q227 76 260 76Q334 76 374 104Z" />
<glyph unicode="C" glyph-name="C" horiz-adv-x="519" d="M425 649T500 605L481 514L471 511Q404 563 323 563Q235 563 189 504T142 326Q142 205 189 142T323 79Q411 79 483 134L493 128L485 34Q399 -8 315 -8Q180 -8 107 76T34 315Q34 475 110 562T327 649Q425
649 500 605Z" />
<glyph unicode="D" glyph-name="D" horiz-adv-x="650" d="M468 646T542 568T616 344Q616 175 535 85T302 -6Q205 -6 87 0H86L93 193L86 642H87L330 646Q468 646 542 568ZM412 76T460 137T509 321Q509 445 463 503T322 562Q267 562 191 558L186 202L189 83Q268
76 320 76Q412 76 460 137Z" />
<glyph unicode="E" glyph-name="E" horiz-adv-x="493" d="M472 79L465 0H86L93 193L86 642H467L473 633L465 554L313 558L191 557L188 370L304 368L410 371L417 363L409 284L296 287L187 285L186 202L189 84L311 83L466 88L472 79Z" />
<glyph unicode="F" glyph-name="F" horiz-adv-x="443" d="M188 355L289 353L395 356L402 347L394 269L280 272L187 271L186 202L191 0H86L93 193L86 642H445L452 633L444 552L294 558L191 557L188 355Z" />
<glyph unicode="G" glyph-name="G" horiz-adv-x="599" d="M457 649T544 606L523 510L512 509Q463 538 423 550T339 563Q239 563 190 503T141 312Q141 188 187 133T333 77Q377 77 444 97L447 162L444 258L541 265L539 178L542 31Q418 -8 327 -8Q180 -8 107 73T34
307Q34 473 117 561T356 649Q457 649 544 606Z" />
<glyph unicode="H" glyph-name="H" horiz-adv-x="688" d="M600 0H496L503 193L502 280L336 283L187 280L186 202L191 0H86L93 193L86 642H192L188 367L344 364L500 367L496 642H602L596 202L600 0Z" />
<glyph unicode="I" glyph-name="I" horiz-adv-x="279" d="M191 0H86L93 193L86 642H192L186 202L191 0Z" />
<glyph unicode="J" glyph-name="J" horiz-adv-x="321" d="M231 119Q231 41 191 -9T50 -104L14 -47V-36Q81 -1 108 32T136 119V202L132 562L15 561L6 569L12 642H235L229 212L231 119Z" />
<glyph unicode="K" glyph-name="K" horiz-adv-x="562" d="M190 0H85L92 193L85 642H191L185 202L190 0ZM423 176T566 22L564 10Q517 -3 464 -9L453 -3Q298 184 194 335V341L395 584L433 642H547L301 340Q423 176 566 22Z" />
<glyph unicode="L" glyph-name="L" horiz-adv-x="423" d="M413 0H83L90 193L83 642H189L183 202L185 86H414L421 77L413 0Z" />
<glyph unicode="M" glyph-name="M" horiz-adv-x="792" d="M645 0L632 195L602 485H595L430 71H348L195 485H186L156 204L140 0H53L120 642H238L268 546L391 205H399L529 549L559 642H676L737 0H645Z" />
<glyph unicode="N" glyph-name="N" horiz-adv-x="688" d="M599 0H488L187 481H179L178 215L183 0H86L93 190L88 642H198L500 161H508L505 637L602 644L595 192L599 0Z" />
<glyph unicode="O" glyph-name="O" horiz-adv-x="639" d="M462 650T533 568T605 334Q605 170 528 81T310 -9Q178 -9 106 75T34 315Q34 476 110 563T329 650Q462 650 533 568ZM228 565T184 508T140 328Q140 197 183 136T318 74Q409 74 453 132T498 315Q498 445
455 505T320 565Q228 565 184 508Z" />
<glyph unicode="P" glyph-name="P" horiz-adv-x="534" d="M401 643T453 594T506 451Q506 343 440 280T257 217H186V202L191 0H86L93 193L86 642L304 643Q401 643 453 594ZM399 318T399 442Q399 502 369 531T276 562L191 559L187 299L287 297Q399 318 399 442Z" />
<glyph unicode="Q" glyph-name="Q" horiz-adv-x="643" d="M714 -167T687 -192L678 -196Q486 -137 334 -8L312 -9Q178 -9 106 75T34 315Q34 476 110 563T329 650Q462 650 533 568T605 332Q605 208 560 126T428 11Q569 -82 730 -114L734 -126Q714 -167 687 -192ZM140
196T184 135T320 74Q498 74 498 318Q498 445 454 505T319 565Q227 565 184 507T140 325Q140 196 184 135Z" />
<glyph unicode="R" glyph-name="R" horiz-adv-x="570" d="M448 148T541 24L540 12Q492 -4 441 -9L429 -1Q346 135 295 229H186V202L191 0H86L93 193L86 642L304 643Q401 643 454 595T507 456Q507 392 474 341T380 257Q448 148 541 24ZM298 310Q399 341 399 448Q399
557 276 562L191 559L188 313L298 310Z" />
<glyph unicode="S" glyph-name="S" horiz-adv-x="483" d="M350 649T426 617L409 523L393 517Q327 566 262 566Q213 566 184 539T155 476Q155 441 184 419T275 367Q329 341 362 320T420 265T444 182Q444 130 416 87T336 18T218 -8Q126 -8 38 35L51 137L64 143Q101
108 145 91T228 73Q280 73 311 100T342 166Q342 204 312 227T220 280Q167 305 134 325T78 380T54 462Q54 514 82 557T160 624T274 649Q350 649 426 617Z" />
<glyph unicode="T" glyph-name="T" horiz-adv-x="495" d="M471 555L355 561H301L296 202L301 0H197L203 193L198 561H144L26 555L19 564L27 642H471L477 633L471 555Z" />
<glyph unicode="U" glyph-name="U" horiz-adv-x="631" d="M561 240Q563 122 497 57T310 -8Q193 -8 131 54T71 232L73 321L71 642H173L169 246Q168 80 317 80Q467 80 466 236L461 642H565L562 316L561 240Z" />
<glyph unicode="V" glyph-name="V" horiz-adv-x="573" d="M220 0L12 642H118L133 569L280 100H287L450 564L466 642H569L342 0H220Z" />
<glyph unicode="W" glyph-name="W" horiz-adv-x="897" d="M560 0L447 345H440L323 0H214L20 642H122L133 573L271 110H279L405 482L354 642H459L475 563L615 110H623L778 567L794 642H890L668 0H560Z" />
<glyph unicode="X" glyph-name="X" horiz-adv-x="598" d="M576 0H451L422 57L291 254L154 51L127 0H19L231 321L24 642H149L177 586L299 400L424 588L450 642H561L361 335L576 0Z" />
<glyph unicode="Y" glyph-name="Y" horiz-adv-x="541" d="M314 0H210L216 184L215 225L11 642H121L134 602L261 333H270L410 600L426 642H534L310 224L309 184L314 0Z" />
<glyph unicode="Z" glyph-name="Z" horiz-adv-x="536" d="M154 81H398L499 89L504 83L495 -2L366 0H96L31 -3V72L375 560H148L45 552L39 558L47 643L442 642L496 643V567L154 81Z" />
<glyph unicode="[" glyph-name="bracketleft" horiz-adv-x="291" d="M287 594L174 581V-63L287 -75V-122L282 -128L90 -118L95 260L90 637L282 647L287 641V594Z" />
<glyph unicode="\" glyph-name="backslash" horiz-adv-x="286" d="M204 -114H275L281 -105L76 679H7L-1 669L204 -114Z" />
<glyph unicode="]" glyph-name="bracketright" horiz-adv-x="291" d="M3 -75L116 -62V582L3 594V641L8 647L200 637L195 259L200 -118L8 -128L3 -122V-75Z" />
<glyph unicode="^" glyph-name="asciicircum" horiz-adv-x="431" d="M405 130L348 116L223 420H217L86 117L77 112L19 134L171 488L181 494H264L413 139L405 130Z" />
<glyph unicode="_" glyph-name="underscore" horiz-adv-x="447" d="M457 -154H-8L-15 -146L-9 -88H455L462 -96L457 -154Z" />
<glyph unicode="`" glyph-name="grave" horiz-adv-x="389" d="M84 653L86 643Q165 585 267 519L277 520L303 560Q198 645 132 708L122 707L84 653Z" />
<glyph unicode="a" glyph-name="a" horiz-adv-x="519" d="M392 0L379 62L361 117L249 118L149 117L130 67L116 0H21L208 501H320L489 0H392ZM265 411H258L177 192L256 191L336 192L265 411Z" />
<glyph unicode="b" glyph-name="b" horiz-adv-x="496" d="M453 237T453 142Q453 -3 220 -3Q149 -3 83 0L87 150L83 501L259 502Q337 502 381 470T425 378Q425 294 345 260Q453 237 453 142ZM325 400T302 415T226 430H178L176 291L258 288Q292 296 308 314T325
365Q325 400 302 415ZM354 67T354 146Q354 205 269 219L175 218L174 159L176 70Q208 67 235 67Q354 67 354 146Z" />
<glyph unicode="c" glyph-name="c" horiz-adv-x="458" d="M370 507T431 475L413 390L404 387Q352 428 279 428Q141 428 141 256Q141 166 177 120T282 73Q354 73 413 114L423 109L415 24Q348 -7 277 -7Q162 -7 101 59T40 247Q40 372 104 439T288 507Q370 507 431 475Z" />
<glyph unicode="d" glyph-name="d" horiz-adv-x="567" d="M404 505T465 444T527 269Q527 136 459 66T265 -5Q170 -5 83 0L87 150L83 501L289 505Q404 505 465 444ZM428 70T428 247Q428 340 392 382T282 425Q220 425 179 421L175 159L177 77Q252 70 281 70Q428
70 428 247Z" />
<glyph unicode="e" glyph-name="e" horiz-adv-x="444" d="M412 73L404 0H83L87 150L83 501H407L413 493L406 420L279 425L179 424L177 294L273 293L360 296L365 288L359 214L265 217L176 216L175 159L177 77L270 76L405 80L412 73Z" />
<glyph unicode="f" glyph-name="f" horiz-adv-x="394" d="M172 280L252 279L341 282L348 274L341 201L244 203L171 202L170 159L174 0H78L82 150L78 501H384L390 493L382 420L257 425L174 424L172 280Z" />
<glyph unicode="g" glyph-name="g" horiz-adv-x="523" d="M388 507T468 476L439 385H429Q391 408 361 418T293 428Q215 428 178 385T141 244Q141 150 176 111T291 71Q329 71 378 89V131L377 206L465 212L464 146V24Q362 -7 286 -7Q164 -7 102 57T40 240Q40 369
110 438T310 507Q388 507 468 476Z" />
<glyph unicode="h" glyph-name="h" horiz-adv-x="600" d="M517 0H421L424 150L423 210L294 211L176 209L175 159L179 0H83L87 150L83 501H180L177 293L301 291L423 292L421 501H518L513 159L517 0Z" />
<glyph unicode="i" glyph-name="i" horiz-adv-x="267" d="M179 0H83L87 150L83 501H180L175 159L179 0Z" />
<glyph unicode="j" glyph-name="j" horiz-adv-x="300" d="M210 165V94Q210 30 180 -9T72 -83L37 -34V-25Q83 -1 102 26T121 93V155L119 429L27 428L21 434L27 501H214L210 165Z" />
<glyph unicode="k" glyph-name="k" horiz-adv-x="503" d="M376 143T494 22L492 8Q445 -4 398 -9L384 -3Q259 147 178 260V267L339 454L371 501L481 502L281 266Q376 143 494 22ZM179 0H83L87 150L83 501H180L175 159L179 0Z" />
<glyph unicode="l" glyph-name="l" horiz-adv-x="382" d="M358 0H80L84 150L80 501H178L173 159L174 80H359L365 72L358 0Z" />
<glyph unicode="m" glyph-name="m" horiz-adv-x="684" d="M543 0L533 152L510 356H504L374 53H299L179 356H171L149 161L136 0H55L109 501H221L244 427L338 180H345L445 428L470 501H579L628 0H543Z" />
<glyph unicode="n" glyph-name="n" horiz-adv-x="600" d="M515 0H411L174 352H168L167 170L170 0H83L87 147L84 501H186L423 149H431L428 498L517 503L512 153L515 0Z" />
<glyph unicode="o" glyph-name="o" horiz-adv-x="558" d="M398 508T458 444T519 262Q519 132 455 62T271 -8Q160 -8 100 58T40 245Q40 371 104 439T288 508Q398 508 458 444ZM207 429T174 389T140 257Q140 156 173 113T278 70Q351 70 385 110T419 243Q419 343
386 386T279 429Q207 429 174 389Z" />
<glyph unicode="p" glyph-name="p" horiz-adv-x="478" d="M354 502T398 463T443 350Q443 264 386 215T232 165H175V159L179 0H83L87 150L83 501L273 502Q354 502 398 463ZM342 255T342 342Q342 424 244 429L179 427L176 239L256 237Q342 255 342 342Z" />
<glyph unicode="q" glyph-name="q" horiz-adv-x="563" d="M601 -129T577 -152L569 -154Q418 -105 297 -7Q288 -8 271 -8Q160 -8 100 58T40 245Q40 371 104 439T288 508Q398 508 458 444T519 262Q519 166 483 102T379 11Q495 -57 616 -83L620 -93Q601 -129 577
-152ZM140 156T173 113T278 70Q351 70 385 110T419 243Q419 343 386 386T279 429Q207 429 174 389T140 257Q140 156 173 113Z" />
<glyph unicode="r" glyph-name="r" horiz-adv-x="508" d="M400 113T473 23L472 11Q420 -4 381 -7L366 2Q293 120 263 174L175 173V159L179 0H83L87 150L83 501L273 502Q354 502 398 464T443 355Q443 306 417 266T342 200Q400 113 473 23ZM263 247Q342 270 342
346Q342 387 318 406T245 428L179 426L176 250L263 247Z" />
<glyph unicode="s" glyph-name="s" horiz-adv-x="433" d="M308 507T372 482L357 391L342 388Q284 434 232 434Q195 434 174 415T152 371Q152 346 174 330T245 293Q290 274 317 258T365 214T385 147Q385 106 364 71T300 15T197 -7Q118 -7 44 25L57 122L68 128Q97
99 136 83T209 66Q245 66 267 84T290 130Q290 157 267 173T196 210Q153 229 125 245T78 289T58 357Q58 399 80 433T145 487T244 507Q308 507 372 482Z" />
<glyph unicode="t" glyph-name="t" horiz-adv-x="441" d="M407 416L310 423H268L266 159L269 0H173L177 150L175 423H134L35 416L28 424L35 501H408L413 493L407 416Z" />
<glyph unicode="u" glyph-name="u" horiz-adv-x="552" d="M481 172Q482 87 427 40T271 -7Q171 -7 119 39T69 172L70 249L67 501H164L159 187Q158 73 275 73Q394 73 392 187L388 501H485L482 246L481 172Z" />
<glyph unicode="v" glyph-name="v" horiz-adv-x="508" d="M192 0L23 501H121L135 438L249 91H254L382 433L396 501H491L307 0H192Z" />
<glyph unicode="w" glyph-name="w" horiz-adv-x="771" d="M472 0L385 248H378L288 0H185L30 501H127L136 441L240 103H247L345 378L307 501H406L418 432L524 103H532L649 436L663 501H754L575 0H472Z" />
<glyph unicode="x" glyph-name="x" horiz-adv-x="527" d="M499 0H383L359 48L258 187L151 43L128 0H28L202 249L30 501H148L171 453L266 322L363 456L384 501H487L323 263L499 0Z" />
<glyph unicode="y" glyph-name="y" horiz-adv-x="483" d="M282 0H186L190 140L189 168L20 501H122L134 469L233 270H240L350 465L365 501H465L279 171L278 140L282 0Z" />
<glyph unicode="z" glyph-name="z" horiz-adv-x="475" d="M153 74H343L432 83L437 78L429 -2L313 0H96L38 -2V67L316 426H132L48 417L44 423L51 502L151 501H382L430 502V431L153 74Z" />
<glyph unicode="{" glyph-name="braceleft" horiz-adv-x="291" d="M240 656T278 648L282 640L273 586Q250 591 237 591Q178 591 178 523Q178 506 189 444Q200 395 200 370Q200 296 132 267V262Q200 233 200 160Q200 133 189 85Q178 23 178 6Q178 -64 237 -64Q250
-64 273 -59L282 -111L278 -119Q253 -127 221 -127Q160 -127 129 -98T97 -12Q97 15 108 83Q117 132 117 156Q117 223 41 239V289Q117 305 117 372Q117 396 108 445Q97 513 97 541Q97 597 128 626T221 656Q240 656 278 648Z" />
<glyph unicode="|" glyph-name="bar" horiz-adv-x="311" d="M194 289V-256L124 -261L116 -251V282L117 794L188 800L195 793L194 289Z" />
<glyph unicode="}" glyph-name="braceright" horiz-adv-x="291" d="M50 -128T12 -120L8 -112L17 -58Q40 -63 53 -63Q112 -63 112 5Q112 22 101 84Q90 133 90 158Q90 232 158 261V266Q90 295 90 368Q90 395 101 443Q112 505 112 522Q112 592 53 592Q40 592 17 587L8
639L12 647Q37 655 69 655Q130 655 161 626T193 540Q193 513 182 445Q173 396 173 372Q173 305 249 289V239Q173 223 173 156Q173 132 182 83Q193 15 193 -13Q193 -69 162 -98T69 -128Q50 -128 12 -120Z" />
<glyph unicode="~" glyph-name="asciitilde" horiz-adv-x="480" d="M138 248T126 238T99 214T80 195H69L42 229V239L118 320L129 326Q160 321 224 301Q316 275 333 275Q345 275 358 286T402 328H412L439 294V284L363 202L352 198Q330 201 247 224Q163 248 149
248Q138 248 126 238Z" />
<glyph unicode="&#xa0;" glyph-name="nbspace" horiz-adv-x="160" />
<glyph unicode="&#xa1;" glyph-name="exclamdown" horiz-adv-x="260" d="M100 239L159 247L170 235L173 -181L164 -193L84 -198L72 -185L100 239ZM116 357T102 371T88 412Q88 439 103 455T144 471Q170 471 184 456T199 415Q199 389 183 373T141 357Q116 357 102 371Z" />
<glyph unicode="&#xa2;" glyph-name="cent" horiz-adv-x="383" d="M303 38T236 35L224 -121H174L166 -112L177 41Q109 57 72 116T34 266Q34 371 81 434T212 507L222 653H272L281 644L271 507Q324 501 365 476L350 411L340 409Q305 431 267 438L241 103H244Q301
103 357 135L366 130L358 69Q303 38 236 35ZM114 158T182 118L206 436Q162 424 138 382T114 274Q114 158 182 118Z" />
<glyph unicode="&#xa3;" glyph-name="sterling" horiz-adv-x="428" d="M392 -2L282 0H26L21 6L27 60Q99 77 99 164V283H26L22 289L27 339H98V423Q97 505 144 549T277 594Q325 594 388 577L382 502L376 496Q319 529 270 529Q184 529 184 437V339H311L315 333L310
283H183V172Q183 107 143 74V71H299L395 78L399 71L392 -2Z" />
<glyph unicode="&#xa4;" glyph-name="currency" horiz-adv-x="435" d="M410 496L342 433Q367 397 367 354Q367 314 343 279L412 218L413 208L369 161L359 162L297 230Q261 204 217 204Q176 204 142 228L81 160H71L24 204L25 214L93 275Q67 311 67 354Q67 396 91
431L23 492V502L66 548L76 547L139 479Q173 504 217 504Q257 504 292 481L354 549L364 550L410 506V496ZM178 447T152 421T125 354Q125 314 151 288T217 262Q257 262 283 288T310 354Q310 394 284 420T217 447Q178 447 152 421Z" />
<glyph unicode="&#xa5;" glyph-name="yen" horiz-adv-x="500" d="M481 160L478 117H289L291 0H206L209 117H28L24 122L27 165H210V168L165 251H28L24 257L27 300H139L33 500H124L135 469L248 263H255L377 466L392 500H481L365 300H477L482 295L478 251H336L289
170V165H477L481 160Z" />
<glyph unicode="&#xa6;" glyph-name="brokenbar" horiz-adv-x="311" d="M194 374L124 366L116 373V794L188 800L195 793L194 374ZM194 -256L124 -261L116 -251V152L185 160L194 150V-256Z" />
<glyph unicode="&#xa7;" glyph-name="section" horiz-adv-x="425" d="M347 97T347 43Q347 5 325 -28T262 -80T171 -100Q139 -100 100 -92T31 -69L44 15L54 22Q116 -34 182 -34Q218 -34 239 -16T260 27Q260 50 239 69T171 115Q128 140 102 160T57 208T38 273Q38
315 63 351T132 411Q83 453 83 506Q83 544 105 577T167 629T256 649Q315 649 372 626L359 544L346 541Q288 581 241 581Q210 581 190 563T169 521Q169 497 190 479T257 435Q300 409 326 390T372 342T391 277Q391 235 366 199T297 140Q347 97 347 43ZM124 266T147
245T220 194L242 180Q305 208 305 254Q305 284 281 305T207 358L189 370Q124 339 124 294Q124 266 147 245Z" />
<glyph unicode="&#xa8;" glyph-name="dieresis" horiz-adv-x="389" d="M139 632T152 618T165 580Q165 554 151 539T112 524Q88 524 75 538T61 577Q61 601 75 616T115 632Q139 632 152 618ZM293 632T306 618T319 580Q319 554 305 539T266 524Q242 524 229 538T215
577Q215 601 229 616T269 632Q293 632 306 618Z" />
<glyph unicode="&#xa9;" glyph-name="copyright" horiz-adv-x="686" d="M431 598T498 560T603 453T640 293Q640 202 603 133T499 26T342 -12Q254 -12 187 26T82 133T45 293Q45 384 82 453T186 560T342 598Q431 598 498 560ZM265 559T207 526T116 433T84 293Q84
214 116 154T206 60T342 27Q419 27 477 60T568 153T601 293Q601 372 569 432T478 526T342 559Q265 559 207 526ZM405 465T452 445L439 389L433 386Q399 407 358 407Q266 407 266 300Q266 184 359 184Q401 184 439 204L446 201L440 145Q397 126 354 126Q275 126
235 169T194 294Q194 376 237 420T360 465Q405 465 452 445Z" />
<glyph unicode="&#xaa;" glyph-name="ordfeminine" horiz-adv-x="328" d="M222 650T250 627T278 562L275 482Q272 437 272 416Q272 392 287 392Q298 392 304 397L311 392L302 345Q281 330 256 330Q233 330 222 340T204 378H200Q166 338 127 329Q82 330 56 354T30
421Q30 486 99 498L198 516L199 546Q199 590 156 590Q119 590 63 554L56 557L46 613Q107 650 170 650Q222 650 250 627ZM108 458T108 429Q108 389 144 389Q172 389 197 419L198 476L135 462Q108 458 108 429Z" />
<glyph unicode="&#xab;" glyph-name="guillemotleft" horiz-adv-x="411" d="M20 235L161 410L209 383L211 372L95 227L211 82L209 71L161 44L20 216V235ZM194 235L335 410L383 383L385 372L269 227L385 82L383 71L335 44L194 216V235Z" />
<glyph unicode="&#xac;" glyph-name="logicalnot" horiz-adv-x="480" d="M427 56L365 51L357 58V228H33L26 235L32 298H421L427 291V56Z" />
<glyph unicode="&#xad;" glyph-name="softhyphen" horiz-adv-x="306" d="M277 236L37 200L28 209V273L268 308L277 300V236Z" />
<glyph unicode="&#xae;" glyph-name="registered" horiz-adv-x="442" d="M304 702T354 652T405 519Q405 436 355 386T221 335Q139 335 89 385T38 519Q38 602 88 652T221 702Q304 702 354 652ZM291 364T333 406T376 519Q376 589 334 631T222 673Q152 673 110 631T68
519Q68 449 110 407T222 364Q291 364 333 406ZM297 526T259 505Q283 468 310 437L309 433Q296 427 269 425L264 428Q243 459 224 495H192V491L194 428H153L154 486L153 623H231Q263 623 280 608T297 564Q297 526 259 505ZM227 526Q255 537 255 561Q255 590 217
592L194 591L193 528L227 526Z" />
<glyph unicode="&#xaf;" glyph-name="overscore" horiz-adv-x="389" d="M337 579H55L48 587L53 645H335L342 638L337 579Z" />
<glyph unicode="&#xb0;" glyph-name="degree" horiz-adv-x="293" d="M200 650T237 613T274 523Q274 470 237 434T147 397Q93 397 56 433T19 523Q19 576 56 613T147 650Q200 650 237 613ZM113 603T89 580T65 523Q65 490 89 467T146 443Q180 443 203 466T227 523Q227
556 204 579T146 603Q113 603 89 580Z" />
<glyph unicode="&#xb1;" glyph-name="plusminus" horiz-adv-x="480" d="M275 298H445L452 291L447 228H275V56L213 51L205 58V228H35L28 235L33 298H205V470L268 476L275 468V298ZM447 -101H35L28 -94L33 -31H445L452 -38L447 -101Z" />
<glyph unicode="&#xb2;" glyph-name="twosuperior" horiz-adv-x="354" d="M229 706T260 682T292 616Q292 587 273 553T209 464L150 389L152 387H260L326 390L329 384L320 317L234 320H68L41 319L37 322V373L133 482Q172 528 188 552T205 597Q205 614 193 625T159
636Q135 636 110 623T63 587H53L39 652Q111 706 180 706Q229 706 260 682Z" />
<glyph unicode="&#xb3;" glyph-name="threesuperior" horiz-adv-x="313" d="M198 707T229 683T261 617Q261 591 246 566T200 526V522Q274 502 274 432Q274 380 228 348T108 315Q71 315 36 323L31 383L37 389Q74 379 109 379Q147 379 168 393T190 434Q190 481 129
483H82L78 488L79 545H109Q134 546 154 562T174 601Q174 640 127 640Q93 640 49 611H40L26 668Q81 707 146 707Q198 707 229 683Z" />
<glyph unicode="&#xb4;" glyph-name="acute" horiz-adv-x="389" d="M305 653L303 643Q224 585 122 519L112 520L86 560Q191 645 257 708L267 707L305 653Z" />
<glyph unicode="&#xb5;" glyph-name="mu" horiz-adv-x="515" d="M484 15Q455 -6 420 -6Q390 -6 372 9T345 60H337Q281 8 218 -6Q185 -6 162 4V-185H66L70 193L66 454L162 463V152Q163 117 181 98T233 78Q286 78 340 129V454L437 463L430 112Q429 68 456 68Q471
68 487 78L495 71L484 15Z" />
<glyph unicode="&#xb6;" glyph-name="paragraph" horiz-adv-x="500" d="M470 563H399L396 188L397 132Q397 61 357 11T223 -81L195 -34V-23Q251 9 276 44T301 127V174L298 564H245Q195 558 168 525T140 435Q140 379 170 339T258 278L223 222Q131 242 82 297T33
438Q33 536 92 589T262 642H470L478 633L470 563Z" />
<glyph unicode="&#xb7;" glyph-name="middot" horiz-adv-x="229" d="M141 305T155 291T169 250Q169 223 154 207T113 191Q87 191 73 206T58 247Q58 273 73 289T116 305Q141 305 155 291Z" />
<glyph unicode="&#xb8;" glyph-name="cedilla" horiz-adv-x="389" d="M238 -70Q278 -91 278 -127Q278 -158 254 -177T191 -197Q148 -197 114 -167L123 -120L128 -118Q157 -149 185 -149Q214 -149 214 -124Q214 -111 195 -102L146 -73L170 22H224L204 -50L238 -70Z" />
<glyph unicode="&#xb9;" glyph-name="onesuperior" horiz-adv-x="265" d="M179 456L182 320H95L97 446V612L19 592L12 596V664L170 707L182 697L179 456Z" />
<glyph unicode="&#xba;" glyph-name="ordmasculine" horiz-adv-x="342" d="M244 650T279 610T315 494Q315 414 277 371T167 328Q99 328 64 368T28 484Q28 565 65 607T176 650Q244 650 279 610ZM139 590T124 567T109 493Q109 437 124 412T172 386Q205 386 220 409T236
484Q236 540 221 565T172 590Q139 590 124 567Z" />
<glyph unicode="&#xbb;" glyph-name="guillemotright" horiz-adv-x="406" d="M385 220L244 45L196 72L194 83L310 228L194 373L196 384L244 411L385 239V220ZM468 220L327 45L279 72L277 83L393 228L277 373L279 384L327 411L468 239V220Z" />
<glyph unicode="&#xbc;" glyph-name="onequarter" horiz-adv-x="721" d="M106 -91L61 -65L56 -52L525 681L568 655L574 640L106 -91ZM19 534L12 538V606L170 649L182 639L179 398L182 262H95L97 388V554L19 534ZM630 94L634 6L629 0L561 -3L556 1L558 95H450L393
92L387 100V153L550 382H630L628 158H684L689 151L685 92L630 94ZM559 158V288H553L462 158H559Z" />
<glyph unicode="&#xbd;" glyph-name="onehalf" horiz-adv-x="740" d="M574 640L106 -91L61 -65L56 -52L525 681L568 655L574 640ZM179 398L182 262H95L97 388V554L19 534L12 538V606L170 649L182 639L179 398ZM615 386T646 362T678 296Q678 267 659 233T595 144L536
69L538 67H646L712 70L715 64L706 -3L620 0H454L427 -1L423 2V53L519 162Q558 208 574 232T591 277Q591 294 579 305T545 316Q521 316 496 303T449 267H439L425 332Q497 386 566 386Q615 386 646 362Z" />
<glyph unicode="&#xbe;" glyph-name="threequarters" horiz-adv-x="759" d="M144 -91L99 -65L94 -52L563 681L606 655L612 640L144 -91ZM274 322T228 290T108 257Q71 257 36 265L31 325L37 331Q74 321 109 321Q147 321 168 335T190 376Q190 423 129 425H82L78
430L79 487H109Q134 488 154 504T174 543Q174 582 127 582Q93 582 49 553H40L26 610Q82 649 146 649Q198 649 229 625T261 559Q261 533 246 508T200 468V464Q274 444 274 374Q274 322 228 290ZM668 94L672 6L667 0L599 -3L594 1L596 95H488L431 92L425 100V153L588
382H668L666 158H722L727 151L723 92L668 94ZM597 158V288H591L500 158H597Z" />
<glyph unicode="&#xbf;" glyph-name="questiondown" horiz-adv-x="335" d="M129 -192T62 -151T-6 -40Q-6 42 81 95L159 145L161 149L155 241L227 250L235 242L243 125L238 115L145 63Q86 29 86 -24Q86 -116 277 -127L284 -137L265 -194L254 -199Q129 -192 62 -151ZM163
357T149 371T134 412Q134 439 149 455T191 471Q217 471 231 456T245 415Q245 389 230 373T188 357Q163 357 149 371Z" />
<glyph unicode="&#xc0;" glyph-name="Agrave" horiz-adv-x="587" d="M248 773T182 802L178 812L205 873L215 875Q283 835 413 768L396 724L385 720Q248 773 182 802ZM462 0L447 72L419 161L283 164L159 161L130 77L114 0H11L239 642H361L567 0H462ZM301 541H293L189
245L291 243L393 245L301 541Z" />
<glyph unicode="&#xc1;" glyph-name="Aacute" horiz-adv-x="587" d="M462 0L447 72L419 161L283 164L160 161L130 77L114 0H11L240 642H361L568 0H462ZM301 541H294L189 245L290 243L393 245L301 541ZM438 811L434 801Q368 772 231 719L220 723L203 767Q333 834
401 874L411 872L438 811Z" />
<glyph unicode="&#xc2;" glyph-name="Acircumflex" horiz-adv-x="587" d="M159 774Q225 818 283 870H307Q361 822 431 774L412 731H401L383 742Q306 790 295 797Q267 778 190 731H179L159 774ZM462 0L447 72L419 161L283 164L159 161L130 77L114 0H11L239 642H361L567
0H462ZM301 541H293L189 245L291 243L393 245L301 541Z" />
<glyph unicode="&#xc3;" glyph-name="Atilde" horiz-adv-x="587" d="M462 0L447 72L419 161L283 164L160 161L130 77L114 0H11L240 642H361L568 0H462ZM301 541H294L189 245L290 243L393 245L301 541ZM459 822L394 745L384 740Q366 743 303 760Q244 777 229 777Q215
777 185 744L170 728H160L129 760V769L194 846L205 850Q232 846 287 831Q346 814 360 814Q370 814 380 822T402 844T419 863H429L459 831V822Z" />
<glyph unicode="&#xc4;" glyph-name="Adieresis" horiz-adv-x="587" d="M161 740T161 792Q161 817 175 831T215 846Q239 846 252 833T265 795Q265 769 251 755T212 740Q161 740 161 792ZM325 740T325 792Q325 817 339 831T379 846Q403 846 416 833T429 795Q429
769 415 755T376 740Q325 740 325 792ZM462 0L447 72L419 161L283 164L159 161L130 77L114 0H11L239 642H361L567 0H462ZM301 541H293L189 245L291 243L393 245L301 541Z" />
<glyph unicode="&#xc5;" glyph-name="Aring" horiz-adv-x="587" d="M462 0L447 72L419 161L283 164L160 161L130 77L114 0H11L240 642H361L568 0H462ZM301 541H294L189 245L290 243L393 245L301 541ZM337 889T360 866T383 804Q383 761 358 738T292 714Q252 714
229 737T205 801Q205 842 228 865T295 889Q337 889 360 866ZM251 843T251 803Q251 759 294 759Q337 759 337 801Q337 843 293 843Q251 843 251 803Z" />
<glyph unicode="&#xc6;" glyph-name="AE" horiz-adv-x="814" d="M793 0H428L423 72L399 244L172 188L115 77L88 0H-17L309 642H711L717 633L709 554L549 559H457L486 346L692 393L700 386L707 313L496 267L521 82H630L794 88L801 79L793 0ZM358 541H351L220 283L388
323L358 541Z" />
<glyph unicode="&#xc7;" glyph-name="Ccedilla" horiz-adv-x="519" d="M411 79T483 134L493 128L485 34Q410 -3 336 -7L324 -50L358 -70Q398 -91 398 -127Q398 -158 374 -177T311 -197Q268 -197 234 -167L243 -120L248 -118Q277 -149 305 -149Q334 -149 334 -124Q334
-111 315 -102L266 -73L283 -7Q163 4 99 87T34 315Q34 475 110 562T327 649Q425 649 500 605L481 514L471 511Q404 563 323 563Q235 563 189 504T142 326Q142 205 189 142T323 79Q411 79 483 134Z" />
<glyph unicode="&#xc8;" glyph-name="Egrave" horiz-adv-x="493" d="M231 773T165 802L161 812L188 873L198 875Q266 835 396 768L379 724L368 720Q231 773 165 802ZM472 79L465 0H86L93 193L86 642H467L473 633L465 554L313 558L191 557L188 370L304 368L410
371L417 363L409 284L296 287L187 285L186 202L188 84L311 83L466 88L472 79Z" />
<glyph unicode="&#xc9;" glyph-name="Eacute" horiz-adv-x="493" d="M472 79L465 0H86L93 193L86 642H467L473 633L465 554L313 558L191 557L188 370L304 368L410 371L417 363L409 284L296 287L187 285L186 202L189 84L311 83L466 88L472 79ZM421 811L417 801Q351
772 214 719L203 723L186 767Q316 834 384 874L394 872L421 811Z" />
<glyph unicode="&#xca;" glyph-name="Ecircumflex" horiz-adv-x="493" d="M142 774Q208 818 266 870H290Q344 822 414 774L395 731H384L366 742Q289 790 278 797Q250 778 173 731H162L142 774ZM472 79L465 0H86L93 193L86 642H467L473 633L465 554L313 558L191
557L188 370L304 368L410 371L417 363L409 284L296 287L187 285L186 202L188 84L311 83L466 88L472 79Z" />
<glyph unicode="&#xcb;" glyph-name="Edieresis" horiz-adv-x="493" d="M144 740T144 792Q144 817 158 831T198 846Q222 846 235 833T248 795Q248 769 234 755T195 740Q144 740 144 792ZM308 740T308 792Q308 817 322 831T362 846Q386 846 399 833T412 795Q412
769 398 755T359 740Q308 740 308 792ZM472 79L465 0H86L93 193L86 642H467L473 633L465 554L313 558L191 557L188 370L304 368L410 371L417 363L409 284L296 287L187 285L186 202L188 84L311 83L466 88L472 79Z" />
<glyph unicode="&#xcc;" glyph-name="Igrave" horiz-adv-x="279" d="M127 835T257 768L240 724L229 720Q92 773 26 802L22 812L49 873L59 875Q127 835 257 768ZM190 0H86L93 193L86 642H192L186 202L190 0Z" />
<glyph unicode="&#xcd;" glyph-name="Iacute" horiz-adv-x="279" d="M191 0H86L93 193L86 642H192L186 202L191 0ZM282 811L278 801Q212 772 75 719L64 723L47 767Q177 834 245 874L255 872L282 811Z" />
<glyph unicode="&#xce;" glyph-name="Icircumflex" horiz-adv-x="279" d="M69 818T127 870H151Q205 822 275 774L256 731H245L227 742Q150 790 139 797Q111 778 34 731H23L3 774Q69 818 127 870ZM190 0H86L93 193L86 642H192L186 202L190 0Z" />
<glyph unicode="&#xcf;" glyph-name="Idieresis" horiz-adv-x="279" d="M96 846T109 833T122 795Q122 769 108 755T69 740Q18 740 18 792Q18 817 32 831T72 846Q96 846 109 833ZM234 846T247 833T260 795Q260 769 246 755T207 740Q156 740 156 792Q156 817 170
831T210 846Q234 846 247 833ZM190 0H86L93 193L86 642H192L186 202L190 0Z" />
<glyph unicode="&#xd0;" glyph-name="Eth" horiz-adv-x="673" d="M491 646T565 568T639 344Q639 175 558 85T326 -6Q230 -6 110 0L116 193L115 287H18L13 295L17 358H114L110 642L353 646Q491 646 565 568ZM435 76T483 137T532 321Q532 445 486 503T345 562Q290
562 214 558L211 358H345L350 350L346 287H210L209 202L212 83Q291 76 343 76Q435 76 483 137Z" />
<glyph unicode="&#xd1;" glyph-name="Ntilde" horiz-adv-x="688" d="M599 0H488L187 481H179L178 215L183 0H86L93 190L88 642H198L500 161H508L505 637L602 644L595 192L599 0ZM506 822L441 745L431 740Q413 743 350 760Q291 777 276 777Q262 777 232 744L217
728H207L176 760V769L241 846L252 850Q279 846 334 831Q393 814 407 814Q417 814 427 822T449 844T466 863H476L506 831V822Z" />
<glyph unicode="&#xd2;" glyph-name="Ograve" horiz-adv-x="639" d="M308 835T438 768L421 724L410 720Q273 773 207 802L203 812L230 873L240 875Q308 835 438 768ZM462 650T533 568T605 334Q605 170 529 81T310 -9Q178 -9 106 75T34 315Q34 476 110 563T329
650Q462 650 533 568ZM227 565T184 508T140 328Q140 197 183 136T318 74Q409 74 453 133T498 315Q498 445 455 505T319 565Q227 565 184 508Z" />
<glyph unicode="&#xd3;" glyph-name="Oacute" horiz-adv-x="639" d="M462 650T533 568T605 334Q605 170 528 81T310 -9Q178 -9 106 75T34 315Q34 476 110 563T329 650Q462 650 533 568ZM228 565T184 508T140 328Q140 197 183 136T318 74Q409 74 453 132T498 315Q498
445 455 505T320 565Q228 565 184 508ZM463 811L459 801Q393 772 256 719L245 723L228 767Q358 834 426 874L436 872L463 811Z" />
<glyph unicode="&#xd4;" glyph-name="Ocircumflex" horiz-adv-x="639" d="M250 818T308 870H332Q386 822 456 774L437 731H426L408 742Q331 790 320 797Q292 778 215 731H204L184 774Q250 818 308 870ZM462 650T533 568T605 334Q605 170 529 81T310 -9Q178 -9
106 75T34 315Q34 476 110 563T329 650Q462 650 533 568ZM227 565T184 508T140 328Q140 197 183 136T318 74Q409 74 453 133T498 315Q498 445 455 505T319 565Q227 565 184 508Z" />
<glyph unicode="&#xd5;" glyph-name="Otilde" horiz-adv-x="639" d="M462 650T533 568T605 334Q605 170 528 81T310 -9Q178 -9 106 75T34 315Q34 476 110 563T329 650Q462 650 533 568ZM228 565T184 508T140 328Q140 197 183 136T318 74Q409 74 453 132T498 315Q498
445 455 505T320 565Q228 565 184 508ZM484 822L419 745L409 740Q391 743 328 760Q269 777 254 777Q240 777 210 744L195 728H185L154 760V769L219 846L230 850Q257 846 312 831Q371 814 385 814Q395 814 405 822T427 844T444 863H454L484 831V822Z" />
<glyph unicode="&#xd6;" glyph-name="Odieresis" horiz-adv-x="639" d="M264 846T277 833T290 795Q290 769 276 755T237 740Q186 740 186 792Q186 817 200 831T240 846Q264 846 277 833ZM428 846T441 833T454 795Q454 769 440 755T401 740Q350 740 350 792Q350
817 364 831T404 846Q428 846 441 833ZM462 650T533 568T605 334Q605 170 529 81T310 -9Q178 -9 106 75T34 315Q34 476 110 563T329 650Q462 650 533 568ZM227 565T184 508T140 328Q140 197 183 136T318 74Q409 74 453 133T498 315Q498 445 455 505T319 565Q227
565 184 508Z" />
<glyph unicode="&#xd7;" glyph-name="multiply" horiz-adv-x="480" d="M410 383L290 263L410 143V133L362 92L240 213L118 91L70 133V142L191 263L70 383V394L118 434L240 313L362 434L410 394V383Z" />
<glyph unicode="&#xd8;" glyph-name="Oslash" horiz-adv-x="639" d="M605 526T605 334Q605 170 529 81T310 -9Q254 -9 209 6L155 -109L96 -85L91 -76L145 39Q34 121 34 315Q34 476 110 563T329 650Q379 650 426 637L469 729L527 706L534 695L492 605Q605 526 605
334ZM140 192T188 130L387 555Q358 565 319 565Q227 565 184 508T140 328Q140 192 188 130ZM409 74T453 133T498 315Q498 454 448 513L247 86Q277 74 318 74Q409 74 453 133Z" />
<glyph unicode="&#xd9;" glyph-name="Ugrave" horiz-adv-x="631" d="M308 835T438 768L421 724L410 720Q273 773 207 802L203 812L230 873L240 875Q308 835 438 768ZM561 240Q563 122 497 57T309 -8Q193 -8 131 54T71 232L72 321L71 642H173L169 246Q168 80 316
80Q467 80 466 236L461 642H565L562 316L561 240Z" />
<glyph unicode="&#xda;" glyph-name="Uacute" horiz-adv-x="631" d="M561 240Q563 122 497 57T310 -8Q193 -8 131 54T71 232L73 321L71 642H173L169 246Q168 80 317 80Q467 80 466 236L461 642H565L562 316L561 240ZM461 811L457 801Q391 772 254 719L243 723L226
767Q356 834 424 874L434 872L461 811Z" />
<glyph unicode="&#xdb;" glyph-name="Ucircumflex" horiz-adv-x="631" d="M250 818T308 870H332Q386 822 456 774L437 731H426L408 742Q331 790 320 797Q292 778 215 731H204L184 774Q250 818 308 870ZM561 240Q563 122 497 57T309 -8Q193 -8 131 54T71 232L72
321L71 642H173L169 246Q168 80 316 80Q467 80 466 236L461 642H565L562 316L561 240Z" />
<glyph unicode="&#xdc;" glyph-name="Udieresis" horiz-adv-x="631" d="M264 846T277 833T290 795Q290 769 276 755T237 740Q186 740 186 792Q186 817 200 831T240 846Q264 846 277 833ZM428 846T441 833T454 795Q454 769 440 755T401 740Q350 740 350 792Q350
817 364 831T404 846Q428 846 441 833ZM561 240Q563 122 497 57T309 -8Q193 -8 131 54T71 232L72 321L71 642H173L169 246Q168 80 316 80Q467 80 466 236L461 642H565L562 316L561 240Z" />
<glyph unicode="&#xdd;" glyph-name="Yacute" horiz-adv-x="541" d="M314 0H210L216 184L215 225L11 642H121L134 602L261 333H270L410 600L426 642H534L310 224L309 184L314 0ZM409 811L405 801Q339 772 202 719L191 723L174 767Q304 834 372 874L382 872L409 811Z" />
<glyph unicode="&#xde;" glyph-name="Thorn" horiz-adv-x="540" d="M405 536T457 487T510 343Q510 233 445 173T260 113L189 111L191 0H87L92 193L88 535L87 642H192L191 535L307 536Q405 536 457 487ZM402 215T402 336Q402 395 371 424T278 456L190 453L187 202V195L288
192Q402 215 402 336Z" />
<glyph unicode="&#xdf;" glyph-name="germandbls" horiz-adv-x="570" d="M341 507T388 495T496 456L500 442L377 294Q464 259 501 225T538 136Q538 68 488 31T363 -7Q284 -7 218 26L229 119L238 124Q266 99 298 85T357 71Q391 71 412 89T434 137Q434 171 395 195T262
247L259 262L378 404Q329 430 282 430Q224 430 193 403T162 324L160 159L164 0H67L71 147L70 324Q70 408 128 457T291 507Q341 507 388 495Z" />
<glyph unicode="&#xe0;" glyph-name="agrave" horiz-adv-x="519" d="M236 625T157 683L155 693L193 747L203 748Q269 685 374 600L348 560L338 559Q236 625 157 683ZM391 0L379 62L361 117L248 118L149 117L130 67L115 0H21L207 501H319L489 0H391ZM264 411H258L177
192L255 191L336 192L264 411Z" />
<glyph unicode="&#xe1;" glyph-name="aacute" horiz-adv-x="519" d="M392 0L379 62L361 117L249 118L149 117L130 67L116 0H21L208 501H320L489 0H392ZM265 411H258L177 192L256 191L336 192L265 411ZM401 693L399 683Q320 625 218 559L208 560L182 600Q287 685
353 748L363 747L401 693Z" />
<glyph unicode="&#xe2;" glyph-name="acircumflex" horiz-adv-x="519" d="M123 604Q180 658 253 741H279Q351 658 408 604L381 564H371Q302 624 266 664Q231 627 161 564H150L123 604ZM391 0L379 62L361 117L248 118L149 117L130 67L115 0H21L207 501H319L489
0H391ZM264 411H258L177 192L255 191L336 192L264 411Z" />
<glyph unicode="&#xe3;" glyph-name="atilde" horiz-adv-x="519" d="M392 0L379 62L361 117L249 118L149 117L130 67L116 0H21L208 501H320L489 0H392ZM265 411H258L177 192L256 191L336 192L265 411ZM429 681L364 604L354 599Q336 602 273 619Q214 636 199 636Q185
636 155 603L140 587H130L99 619V628L164 705L175 709Q202 705 257 690Q316 673 330 673Q340 673 350 681T372 703T389 722H399L429 690V681Z" />
<glyph unicode="&#xe4;" glyph-name="adieresis" horiz-adv-x="519" d="M131 599T131 651Q131 676 145 690T185 705Q209 705 222 692T235 654Q235 628 221 614T182 599Q131 599 131 651ZM295 599T295 651Q295 676 309 690T349 705Q373 705 386 692T399 654Q399
628 385 614T346 599Q295 599 295 651ZM391 0L379 62L361 117L248 118L149 117L130 67L115 0H21L207 501H319L489 0H391ZM264 411H258L177 192L255 191L336 192L264 411Z" />
<glyph unicode="&#xe5;" glyph-name="aring" horiz-adv-x="519" d="M392 0L379 62L361 117L249 118L149 117L130 67L116 0H21L208 501H320L489 0H392ZM265 411H258L177 192L256 191L336 192L265 411ZM307 748T330 725T353 663Q353 620 328 597T262 573Q222 573
199 596T175 660Q175 701 198 724T265 748Q307 748 330 725ZM221 702T221 662Q221 618 264 618Q307 618 307 660Q307 702 263 702Q221 702 221 662Z" />
<glyph unicode="&#xe6;" glyph-name="ae" horiz-adv-x="704" d="M676 0H368L364 60L347 178L149 130L113 65L91 0H-1L269 501H609L615 493L607 422L475 428H399L422 271L593 310L600 305L606 233L433 198L451 75H540L677 80L683 73L676 0ZM312 413H305L197 218L336
250L312 413Z" />
<glyph unicode="&#xe7;" glyph-name="ccedilla" horiz-adv-x="458" d="M354 73T413 114L423 109L415 24Q355 -4 293 -7L281 -50L315 -70Q355 -91 355 -127Q355 -158 331 -177T268 -197Q225 -197 191 -167L200 -120L205 -118Q234 -149 262 -149Q291 -149 291 -124Q291
-111 272 -102L223 -73L240 -5Q143 6 92 70T40 247Q40 372 104 439T288 507Q370 507 431 475L413 390L404 387Q352 428 279 428Q141 428 141 256Q141 166 177 120T282 73Q354 73 413 114Z" />
<glyph unicode="&#xe8;" glyph-name="egrave" horiz-adv-x="444" d="M216 625T137 683L135 693L173 747L183 748Q249 685 354 600L328 560L318 559Q216 625 137 683ZM412 73L405 0H83L87 150L83 501H407L413 493L406 420L279 425L179 424L177 294L273 293L360
296L366 288L359 214L265 217L176 216L175 159L177 77L271 76L406 80L412 73Z" />
<glyph unicode="&#xe9;" glyph-name="eacute" horiz-adv-x="444" d="M412 73L404 0H83L87 150L83 501H407L413 493L406 420L279 425L179 424L177 294L273 293L360 296L365 288L359 214L265 217L176 216L175 159L177 77L270 76L405 80L412 73ZM381 693L379 683Q300
625 198 559L188 560L162 600Q267 685 333 748L343 747L381 693Z" />
<glyph unicode="&#xea;" glyph-name="ecircumflex" horiz-adv-x="444" d="M103 604Q160 658 233 741H259Q331 658 388 604L361 564H351Q282 624 246 664Q211 627 141 564H130L103 604ZM412 73L405 0H83L87 150L83 501H407L413 493L406 420L279 425L179 424L177
294L273 293L360 296L366 288L359 214L265 217L176 216L175 159L177 77L271 76L406 80L412 73Z" />
<glyph unicode="&#xeb;" glyph-name="edieresis" horiz-adv-x="444" d="M111 599T111 651Q111 676 125 690T165 705Q189 705 202 692T215 654Q215 628 201 614T162 599Q111 599 111 651ZM275 599T275 651Q275 676 289 690T329 705Q353 705 366 692T379 654Q379
628 365 614T326 599Q275 599 275 651ZM412 73L405 0H83L87 150L83 501H407L413 493L406 420L279 425L179 424L177 294L273 293L360 296L366 288L359 214L265 217L176 216L175 159L177 77L271 76L406 80L412 73Z" />
<glyph unicode="&#xec;" glyph-name="igrave" horiz-adv-x="267" d="M139 685T244 600L218 560L208 559Q106 625 27 683L25 693L63 747L73 748Q139 685 244 600ZM179 0H83L87 150L83 501H180L175 159L179 0Z" />
<glyph unicode="&#xed;" glyph-name="iacute" horiz-adv-x="267" d="M179 0H83L87 150L83 501H180L175 159L179 0ZM527 693L525 683Q446 625 344 559L334 560L308 600Q413 685 479 748L489 747L527 693Z" />
<glyph unicode="&#xee;" glyph-name="icircumflex" horiz-adv-x="267" d="M50 658T123 741H149Q221 658 278 604L251 564H241Q172 624 136 664Q101 627 31 564H20L-7 604Q50 658 123 741ZM179 0H83L87 150L83 501H180L175 159L179 0Z" />
<glyph unicode="&#xef;" glyph-name="idieresis" horiz-adv-x="267" d="M92 705T105 692T118 654Q118 628 104 614T65 599Q14 599 14 651Q14 676 28 690T68 705Q92 705 105 692ZM230 705T243 692T256 654Q256 628 242 614T203 599Q152 599 152 651Q152 676 166
690T206 705Q230 705 243 692ZM179 0H83L87 150L83 501H180L175 159L179 0Z" />
<glyph unicode="&#xf0;" glyph-name="eth" horiz-adv-x="589" d="M423 505T485 444T547 269Q547 136 479 66T284 -5Q189 -5 102 0L106 150L105 215H23L17 222L21 280H105L102 501L308 505Q423 505 485 444ZM448 70T448 247Q448 340 412 382T301 425Q239 425 198
421L196 280H314L319 272L315 215H195L194 159L196 77Q271 70 300 70Q448 70 448 247Z" />
<glyph unicode="&#xf1;" glyph-name="ntilde" horiz-adv-x="600" d="M515 0H411L174 352H168L167 170L170 0H83L87 147L84 501H186L423 149H431L428 498L517 503L512 153L515 0ZM463 681L398 604L388 599Q370 602 307 619Q248 636 233 636Q219 636 189 603L174
587H164L133 619V628L198 705L209 709Q236 705 291 690Q350 673 364 673Q374 673 384 681T406 703T423 722H433L463 690V681Z" />
<glyph unicode="&#xf2;" glyph-name="ograve" horiz-adv-x="558" d="M285 685T390 600L364 560L354 559Q252 625 173 683L171 693L209 747L219 748Q285 685 390 600ZM398 508T458 444T519 262Q519 132 455 62T271 -8Q160 -8 100 58T40 245Q40 371 104 439T288
508Q398 508 458 444ZM207 429T174 389T140 257Q140 157 173 114T278 70Q351 70 385 110T419 243Q419 343 386 386T279 429Q207 429 174 389Z" />
<glyph unicode="&#xf3;" glyph-name="oacute" horiz-adv-x="558" d="M398 508T458 444T519 262Q519 132 455 62T271 -8Q160 -8 100 58T40 245Q40 371 104 439T288 508Q398 508 458 444ZM207 429T174 389T140 257Q140 156 173 113T278 70Q351 70 385 110T419 243Q419
343 386 386T279 429Q207 429 174 389ZM417 693L415 683Q336 625 234 559L224 560L198 600Q303 685 369 748L379 747L417 693Z" />
<glyph unicode="&#xf4;" glyph-name="ocircumflex" horiz-adv-x="558" d="M196 658T269 741H295Q367 658 424 604L397 564H387Q318 624 282 664Q247 627 177 564H166L139 604Q196 658 269 741ZM398 508T458 444T519 262Q519 132 455 62T271 -8Q160 -8 100 58T40
245Q40 371 104 439T288 508Q398 508 458 444ZM207 429T174 389T140 257Q140 157 173 114T278 70Q351 70 385 110T419 243Q419 343 386 386T279 429Q207 429 174 389Z" />
<glyph unicode="&#xf5;" glyph-name="otilde" horiz-adv-x="558" d="M398 508T458 444T519 262Q519 132 455 62T271 -8Q160 -8 100 58T40 245Q40 371 104 439T288 508Q398 508 458 444ZM207 429T174 389T140 257Q140 156 173 113T278 70Q351 70 385 110T419 243Q419
343 386 386T279 429Q207 429 174 389ZM445 681L380 604L370 599Q352 602 289 619Q230 636 215 636Q201 636 171 603L156 587H146L115 619V628L180 705L191 709Q218 705 273 690Q332 673 346 673Q356 673 366 681T388 703T405 722H415L445 690V681Z" />
<glyph unicode="&#xf6;" glyph-name="odieresis" horiz-adv-x="558" d="M225 705T238 692T251 654Q251 628 237 614T198 599Q147 599 147 651Q147 676 161 690T201 705Q225 705 238 692ZM389 705T402 692T415 654Q415 628 401 614T362 599Q311 599 311 651Q311
676 325 690T365 705Q389 705 402 692ZM398 508T458 444T519 262Q519 132 455 62T271 -8Q160 -8 100 58T40 245Q40 371 104 439T288 508Q398 508 458 444ZM207 429T174 389T140 257Q140 157 173 114T278 70Q351 70 385 110T419 243Q419 343 386 386T279 429Q207
429 174 389Z" />
<glyph unicode="&#xf7;" glyph-name="divide" horiz-adv-x="480" d="M455 228H43L36 235L41 298H453L460 291L455 228ZM268 140T281 127T294 90Q294 65 280 51T243 36Q219 36 206 49T192 87Q192 111 206 125T245 140Q268 140 281 127ZM268 457T281 444T294 407Q294
382 280 368T243 353Q219 353 206 366T192 404Q192 428 206 442T245 457Q268 457 281 444Z" />
<glyph unicode="&#xf8;" glyph-name="oslash" horiz-adv-x="558" d="M519 405T519 262Q519 132 455 62T271 -8Q228 -8 190 3L134 -104L80 -77L77 -67L129 32Q40 96 40 245Q40 371 104 439T288 508Q335 508 372 496L413 575L463 549L468 539L431 468Q519 405 519
262ZM140 159T172 115L333 422Q311 429 279 429Q207 429 174 389T140 257Q140 159 172 115ZM351 70T385 110T419 243Q419 340 387 384L228 76Q249 70 278 70Q351 70 385 110Z" />
<glyph unicode="&#xf9;" glyph-name="ugrave" horiz-adv-x="552" d="M283 685T388 600L362 560L352 559Q250 625 171 683L169 693L207 747L217 748Q283 685 388 600ZM483 172Q484 87 429 40T273 -7Q173 -7 121 39T70 172L71 249L69 501H166L160 187Q159 73 276
73Q395 73 393 187L389 501H486L483 246V172Z" />
<glyph unicode="&#xfa;" glyph-name="uacute" horiz-adv-x="552" d="M481 172Q482 87 427 40T271 -7Q171 -7 119 39T69 172L70 249L67 501H164L159 187Q158 73 275 73Q394 73 392 187L388 501H485L482 246L481 172ZM414 693L412 683Q333 625 231 559L221 560L195
600Q300 685 366 748L376 747L414 693Z" />
<glyph unicode="&#xfb;" glyph-name="ucircumflex" horiz-adv-x="552" d="M194 658T267 741H293Q365 658 422 604L395 564H385Q316 624 280 664Q245 627 175 564H164L137 604Q194 658 267 741ZM483 172Q484 87 429 40T273 -7Q173 -7 121 39T70 172L71 249L69 501H166L160
187Q159 73 276 73Q395 73 393 187L389 501H486L483 246V172Z" />
<glyph unicode="&#xfc;" glyph-name="udieresis" horiz-adv-x="552" d="M223 705T236 692T249 654Q249 628 235 614T196 599Q145 599 145 651Q145 676 159 690T199 705Q223 705 236 692ZM387 705T400 692T413 654Q413 628 399 614T360 599Q309 599 309 651Q309
676 323 690T363 705Q387 705 400 692ZM483 172Q484 87 429 40T273 -7Q173 -7 121 39T70 172L71 249L69 501H166L160 187Q159 73 276 73Q395 73 393 187L389 501H486L483 246V172Z" />
<glyph unicode="&#xfd;" glyph-name="yacute" horiz-adv-x="483" d="M282 0H186L190 140L189 168L20 501H122L134 469L233 270H240L350 465L365 501H465L279 171L278 140L282 0ZM382 693L380 683Q301 625 199 559L189 560L163 600Q268 685 334 748L344 747L382 693Z" />
<glyph unicode="&#xfe;" glyph-name="thorn" horiz-adv-x="483" d="M359 422T403 383T447 269Q447 182 392 134T234 86H178L180 0H83L87 150L83 501H181L180 421L276 422Q359 422 403 383ZM345 178T345 260Q345 305 321 326T246 350L179 348L176 161L258 158Q345
178 345 260Z" />
<glyph unicode="&#xff;" glyph-name="ydieresis" horiz-adv-x="483" d="M112 599T112 651Q112 676 126 690T166 705Q190 705 203 692T216 654Q216 628 202 614T163 599Q112 599 112 651ZM276 599T276 651Q276 676 290 690T330 705Q354 705 367 692T380 654Q380
628 366 614T327 599Q276 599 276 651ZM282 0H186L190 140L189 168L20 501H122L134 469L233 270H240L350 465L365 501H465L279 171L278 140L282 0Z" />
<glyph unicode="&#x2013;" glyph-name="endash" horiz-adv-x="473" d="M483 221H-8L-15 229L-9 292H481L488 284L483 221Z" />
<glyph unicode="&#x2014;" glyph-name="emdash" horiz-adv-x="912" d="M924 221H-10L-16 229L-11 292H922L930 284L924 221Z" />
<glyph unicode="&#x2018;" glyph-name="quoteleft" horiz-adv-x="183" d="M33 442T33 499Q33 568 114 646L151 621L152 613Q111 569 111 529Q111 486 150 467V458Q122 433 88 417Q33 442 33 499Z" />
<glyph unicode="&#x2019;" glyph-name="quoteright" horiz-adv-x="183" d="M153 620T153 563Q153 494 72 416L35 441L34 449Q75 493 75 533Q75 576 36 595V604Q64 629 98 645Q153 620 153 563Z" />
<glyph unicode="&#x201a;" glyph-name="quotesinglbase" horiz-adv-x="229" d="M429 75T429 31Q429 -43 323 -119L290 -89L289 -81Q344 -36 344 11Q344 42 313 64V73Q350 97 386 106Q429 75 429 31Z" />
<glyph unicode="&#x201c;" glyph-name="quotedblleft" horiz-adv-x="321" d="M174 442T174 499Q174 568 255 646L292 621L293 613Q252 569 252 529Q252 486 291 467V458Q263 433 229 417Q174 442 174 499ZM28 442T28 499Q28 568 109 646L146 621L147 613Q106 569
106 529Q106 486 145 467V458Q117 433 83 417Q28 442 28 499Z" />
<glyph unicode="&#x201d;" glyph-name="quotedblright" horiz-adv-x="324" d="M292 620T292 563Q292 494 211 416L174 441L173 449Q214 493 214 533Q214 576 175 595V604Q203 629 237 645Q292 620 292 563ZM407 620T407 563Q407 494 326 416L289 441L288 449Q329
493 329 533Q329 576 290 595V604Q318 629 352 645Q407 620 407 563Z" />
<glyph unicode="&#x201e;" glyph-name="quotedblbase" horiz-adv-x="374" d="M317 75T317 31Q317 -43 211 -119L178 -89L177 -81Q232 -36 232 11Q232 42 201 64V73Q238 97 274 106Q317 75 317 31ZM429 75T429 31Q429 -43 323 -119L290 -89L289 -81Q344 -36 344
11Q344 42 313 64V73Q350 97 386 106Q429 75 429 31Z" />
<glyph unicode="&#x2022;" glyph-name="bullet" horiz-adv-x="264" d="M163 338T179 321T196 273Q196 242 179 223T131 204Q100 204 83 221T66 270Q66 300 84 319T134 338Q163 338 179 321Z" />
<glyph unicode="&#x2039;" glyph-name="guilsinglleft" horiz-adv-x="235" d="M22 234L163 409L211 382L213 371L97 226L213 81L211 70L163 43L22 215V234Z" />
<glyph unicode="&#x203a;" glyph-name="guilsinglright" horiz-adv-x="240" d="M217 220L76 45L28 72L26 83L142 228L26 373L28 384L76 411L217 239V220Z" />
</font>
</defs>
</svg>
